Присоединяйтесь к нам в Telegram!, здесь всегда актуальный адрес сайта, оперативная поддержка и многое другое!!

>

5.9

iTunes

7.4

iTunes

9.4

1 сезон

1

7.4

2 сезон

7.2

iTunes

7.3

1 сезон

13

6.1

iTunes

8.3

Пиратка

30

ULTIMATE

pack

9.9

Лицензия

ВАЖНО

ИГРА 18+

pack

7.3

RePack

MK11

7.7

RePack

jed

7.8

RePack

fifa19

8.5

RePack

RDR2

RePack

NEED FOR SPEED™ PAYBACK

5 сезон

9 сезон

Бесстыжие 9 сезон

Все сериалы

все сериалы на PB.wtf

RePack

FAR CRY 5

Anonymous, доброе утро, мы катастрофически не успеваем собрать деньги на оплату серверов, помогите нам пожалуйста 5,10,15р., для нас важна любая помощь . В качестве благодарности мы отключим Вам всю рекламу на сайте (укажите свой ник в строку Ваше имя)!

×
  
Magnet ссылка

Телохранитель жены киллера / Hitman's Wife's Bodyguard (Патрик Хьюз / Patrick Hughes) [2021, боевик, комедия, HDRip-AVC] [MEGOGO, Extended Cut] от ExKinoRay pb.wtf

Телохранитель жены киллера через торрент pb.wtf

Размер: 1.82 GB | Добавлен: 1 мес. 4 д. назад | Торрент скачан:87 раз
Смотреть онлайн Телохранитель жены киллера | Скачать    Ребята, помогите собрать деньги на оплату серверов!!!

01-11-2021 10:14 Телохранитель жены киллера Скачать торрент  


Телохранитель жены киллера / Hitman's Wife's Bodyguard
Информация о фильме:
Название: Телохранитель жены киллера
Оригинальное название: Hitman's Wife's Bodyguard
Год выхода: 2021
Жанр: Боевик, комедия
Режиссер: Патрик Хьюз

В ролях: Райан Рейнольдс, Сэмюэл Л. Джексон, Сальма Хайек, Морган Фримен, Гэри Олдман, Фрэнк Грилло, Антонио Бандерас, Том Хоппер, Ричард Э. Грант, Кэролайн Гудолл

Описание: Жизнь здорово потрепала нервишки Майкла Брайса, так что с карьерой телохранителя он решил завязать. Психотерапевт посоветовал ему отправиться на тихий курорт, вооружившись лишь книжкой и плейлистом расслабляющей музыки. Но и здесь его находит самая безумная в мире парочка: киллер мирового уровня и настоящий магнит неприятностей Дариус Кинкейд и его супруга Соня — буйная дамочка не робкого десятка. Преступный синдикат устроил на них охоту, и Майклу, при всем желании остаться в стороне, придется вернуться к старому ремеслу и снова стать телохранителем. На этот раз — жены киллера!



Страна: Великобритания, США
Студия: Millennium Media, Summit Entertainment, Above the Line Set Assistance & Security
Продолжительность: 01:56:36
Перевод: Дублированный - MEGOGO



Информация о файле:
Кодек: AVC
Формат: MKV
Качество: HDRip-AVC
Видео: MPEG-4 AVC, 1024x428, 23.976 fps, 1850 kbps
Аудио RU: AC3, 6 ch, 48 kHz, 384 kbps
Субтитры: Русские (форс., полные), английские, французские

x264 info: frame I:1710 Avg QP:14.86 size: 62695
x264 info: frame P:42120 Avg QP:18.82 size: 18790
x264 info: frame B:123977 Avg QP:20.76 size: 5798
x264 info: consecutive B-frames: 4.3% 4.4% 10.2% 29.1% 16.0% 28.2% 5.3% 1.5% 0.7% 0.1% 0.3%
General
Unique ID : 266552020387542164235168754861295434033 (0xC8880D4176663FA7DB7C78FED6EE7931)
Complete name : D:uTorrentРипы wolf1245Hitman's Wife's Bodyguard.2021.DUB.HDRip-AVC..[wolf1245.ExKinoRay].mkv
Format : Matroska
Format version : Version 4
File size : 1.82 GiB
Duration : 1 h 56 min
Overall bit rate : 2 235 kb/s
Movie name : Hitman's Wife's Bodyguard.2021.DUB.HDRip-AVC..[wolf1245.ExKinoRay]
Encoded date : UTC 2021-11-01 09:57:10
Writing application : mkvmerge v62.0.0 ('Apollo') 64-bit
Writing library : libebml v1.4.2 + libmatroska v1.6.4
Video
ID : 1
Format : AVC
Format/Info : Advanced Video Codec
Format profile : High@L4.1
Format settings : CABAC / 12 Ref Frames
Format settings, CABAC : Yes
Format settings, Reference frames : 12 frames
Codec ID : V_MPEG4/ISO/AVC
Duration : 1 h 56 min
Bit rate : 1 850 kb/s
Width : 1 024 pixels
Height : 428 pixels
Display aspect ratio : 2.40:1
Frame rate mode : Constant
Frame rate : 23.976 (24000/1001) FPS
Color space : YUV
Chroma subsampling : 4:2:0
Bit depth : 8 bits
Scan type : Progressive
Bits/(Pixel*Frame) : 0.176
Stream size : 1.51 GiB (83%)
Title : -=[wolf1245.ExKinoRay]=-
Writing library : x264 core 161 r3020 d198931
Encoding settings : cabac=1 / ref=12 / deblock=1:-3:-3 / analyse=0x3:0x133 / me=umh / subme=11 / psy=1 / psy_rd=1.03:0.05 / mixed_ref=1 / me_range=48 / chroma_me=1 / trellis=2 / 8x8dct=1 / cqm=0 / deadzone=21,11 / fast_pskip=1 / chroma_qp_offset=-3 / threads=10 / lookahead_threads=2 / sliced_threads=0 / nr=0 / decimate=0 / interlaced=0 / bluray_compat=0 / constrained_intra=0 / bframes=10 / b_pyramid=2 / b_adapt=2 / b_bias=0 / direct=3 / weightb=1 / open_gop=0 / weightp=2 / keyint=240 / keyint_min=24 / scenecut=40 / intra_refresh=0 / rc_lookahead=60 / rc=2pass / mbtree=0 / bitrate=1850 / ratetol=1.0 / qcomp=0.60 / qpmin=0 / qpmax=69 / qpstep=4 / cplxblur=20.0 / qblur=0.5 / vbv_maxrate=50000 / vbv_bufsize=62500 / nal_hrd=none / filler=0 / ip_ratio=1.40 / pb_ratio=1.30 / aq=1:0.80
Language : French
Default : Yes
Forced : No
Audio
ID : 2
Format : AC-3
Format/Info : Audio Coding 3
Commercial name : Dolby Digital
Codec ID : A_AC3
Duration : 1 h 56 min
Bit rate mode : Constant
Bit rate : 384 kb/s
Channel(s) : 6 channels
Channel layout : L R C LFE Ls Rs
Sampling rate : 48.0 kHz
Frame rate : 31.250 FPS (1536 SPF)
Compression mode : Lossy
Stream size : 320 MiB (17%)
Title : DUB | MEGOGO | Extended Cut
Language : Russian
Service kind : Complete Main
Default : Yes
Forced : No
Text #1
ID : 3
Format : UTF-8
Codec ID : S_TEXT/UTF8
Codec ID/Info : UTF-8 Plain Text
Duration : 1 h 31 min
Bit rate : 0 b/s
Count of elements : 4
Stream size : 112 Bytes (0%)
Title : Forced
Language : Russian
Default : Yes
Forced : No
Text #2
ID : 4
Format : UTF-8
Codec ID : S_TEXT/UTF8
Codec ID/Info : UTF-8 Plain Text
Duration : 1 h 49 min
Bit rate : 125 b/s
Count of elements : 1952
Stream size : 100 KiB (0%)
Title : Full
Language : Russian
Default : No
Forced : No
Text #3
ID : 5
Format : UTF-8
Codec ID : S_TEXT/UTF8
Codec ID/Info : UTF-8 Plain Text
Duration : 1 h 50 min
Bit rate : 87 b/s
Count of elements : 2292
Stream size : 70.8 KiB (0%)
Language : English
Default : No
Forced : No
Text #4
ID : 6
Format : UTF-8
Codec ID : S_TEXT/UTF8
Codec ID/Info : UTF-8 Plain Text
Duration : 1 h 55 min
Bit rate : 62 b/s
Count of elements : 1855
Stream size : 53.2 KiB (0%)
Language : French
Default : No
Forced : No
Menu
00:00:00.000 : :00:00:00.000
00:09:14.095 : :00:09:14.095
00:19:37.093 : :00:19:37.093
00:29:26.431 : :00:29:26.431
00:36:33.650 : :00:36:33.650
00:47:14.540 : :00:47:14.540
00:56:26.300 : :00:56:26.300
01:10:33.312 : :01:10:33.312
01:20:05.801 : :01:20:05.801
01:29:03.004 : :01:29:03.004
01:35:24.928 : :01:35:24.928
01:48:43.183 : :01:48:43.183
Релиз от:
Автор релиза:
pb.wtf



Скачать Телохранитель жены киллера через торрент http://lostpix.com/img/2021-07/18/sulqde9wlyisfsxtfbzmufr8n.jpg Скачать, смотреть онлайн Телохранитель жены киллера бесплантно в хорошем качестве Описание: Жизнь здорово потрепала нервишки Майкла Брайса, так что с карьерой телохранителя он решил завязать. Психотерапевт посоветовал ... 10 10 3
Info! Золотая раздача, скачанное не засчитывается.
Торрент: Зарегистрирован [2021-11-01 10:14] · скачан: 87 раз
Статус: √ проверено
Размер: 1.82 GB
Как cкачать? Как скачать Телохранитель жены киллера через торрент | UTorrent

28-11-2019 20:33  

Отключить всю рекламу на сайте

    Дорогой пользователь! Огромная просьба, поблагодарите релизера, оцените раздачу и оставьте свои комментарий, если Вы скачали Телохранитель жены киллера через торрент бесплатно!
    Комментировать посты могут только пользователи прошедшие не сложную регистрацию
    Показать сообщения:    

    Телохранитель жены киллера через торрент
    Скачать бесплатно Телохранитель жены киллера
    Телохранитель жены киллера скачать торрент
    Телохранитель жены киллера смотреть онлайн
    Cкачать фильм Телохранитель жены киллера бесплатно
    Телохранитель жены киллера скачать торрент в хорошем качестве
    Телохранитель жены киллера смотреть онлайн бесплатно в хорошем качестве


    Вы не можете начинать темы
    Вы не можете отвечать на сообщения
    Вы не можете редактировать свои сообщения
    Вы не можете удалять свои сообщения
    Вы не можете голосовать в опросах
    Вы не можете прикреплять файлы к сообщениям
    Вы можете скачивать файлы