Достать ножи: Стеклянная луковица

MVO

Добыча

Дубляж

Уэнсдэй

1 сезон

Тор

Дубляж

13 клиническая

1 сезон

Жестокая ночь

MVO

Одни из нас

1 сезон

Deluxe

pack

Рекомендуем

30

Пиратка

ВАЖНО

ВАЖНО

Ghostwire

Пиратка

jed

RePack

nioh2

RePack

RDR2

RePack

NEED FOR SPEED™ PAYBACK

RePack

скачать торрент

Кинопоиск HD

Острые козырьки 6 сезон

6 сезон

FAR CRY 6

RePack

скачать торрент

Лицензия

скачать торрент

MVO

1

1 сезон

скачать торрент

1 сезон

скачать торрент

Лицензия

  

Звездный путь: Вундеркинды / Star Trek: Prodigy / Сезон: 1 / Серии: 1-5 из 10 (Бен Хайбон) [2021, Фантастика, боевик, комедия, приключения, семейный, WEBRip] MVO [TVShows]

Звездный путь: Вундеркинды через торрент pb.wtf

Размер: 2.83 GB | Добавлен: 9 мес. назад | Торрент скачан:32 раза
Смотреть онлайн | Скачать | Поддержите нас   

02-11-2021 00:02 Звездный путь: Вундеркинды Скачать торрент  

Звездный путь: Вундеркинды
Star Trek: Prodigy

«***»
Год выпуска: 2021
Страна: США
Выпущено: 219 Productions, CBS Eye Animation Productions, CBS Television Studios
Жанр: Фантастика, боевик, комедия, приключения, семейный
Продолжительность: ~ 00:25:00
Перевод: Профессиональный (многоголосый) | TVShows
Субтитры: отсутствуют

Режиссер: Бен Хайбон

rating

В ролях: Бретт Грэй (Brett Gray), Элла Пернелл (Ella Purnell), Джейсон Манцукас (Jason Mantzoukas), Энгус Имри (Angus Imrie), Райли Алазраки (Rylee Alazraqui), Ди Брэдли Бейкер (Dee Bradley Baker), Джимми Симпсон (Jimmi Simpson), Джон Ноубл (John Noble), Кейт Малгрю (Kate Mulgrew), Джейсон Александер (Jason Alexander), Джамила Джамил (Jameela Jamil), Давид Диггс (Daveed Diggs)

Описание: События разворачиваются в 2383 году — через пять лет после того, как «Вояджер» вернулся на Землю. Разношерстная группа подростков оказывается в колонии горнодобывающей планеты Дельта-квадранта, и каждый из них мечтает сбежать из ненавистного места, где их безрадостные дни наполнены тяжким трудом. И однажды такая возможность представляется, когда инопланетянин Дал, находит в одной из расселин заброшенный корабль Звездного флота «Протостар». Вот только никто из планирующих побег подростков не знает, как им управлять... Новоявленной банде дерзких мечтателей придется стать настоящей командой, чтобы выжить и раскрыть зловещие планы Прорицателя, стоящего во главе управления колонией.

Качество: WEBRip
Формат: AVI

Видео: 720x304 (2.37:1), 24 fps, XviD build 69 ~1496 kbps avg, 0.28 bit/pixel
Аудио: 48.0 kHz, AC3 Dolby Digital, 2/0 (L,R) ch, ~ 192 kbps
скриншот  скриншот  скриншот  скриншот  

Общее
Полное имя : D:\Star.Trek.Prodigy.S01.400p.FilmsClub\Star.Trek.Prodigy.S01E01E02.400p.FilmsClub.avi
Формат : AVI
Формат/Информация : Audio Video Interleave
Размер файла : 550 Мбайт
Продолжительность : 45 м. 13 с.
Общий поток : 1 700 Кбит/сек
Программа кодирования : Lavf58.45.100

Видео
Идентификатор : 0
Формат : MPEG-4 Visual
Профиль формата : Advanced [email protected]
Настройки формата : BVOP1 / Custom Matrix
Параметр BVOP формата : 1
Параметр QPel формата : Нет
Параметр GMC формата : Без точки перехода
Параметр матрицы формата : Выборочная
Идентификатор кодека : XVID
Идентификатор кодека/Подсказка : XviD
Продолжительность : 45 м. 13 с.
Битрейт : 1 496 Кбит/сек
Ширина : 720 пикселей
Высота : 304 пикселя
Соотношение сторон : 2,35:1
Частота кадров : 24,000 кадра/сек
Цветовое пространство : YUV
Субдискретизация насыщенности : 4:2:0
Битовая глубина : 8 бит
Тип развёртки : Прогрессивная
Метод сжатия : С потерями
Бит/(Пиксели*Кадры) : 0.273
Размер потока : 463 Мбайт (84%)
Библиотека кодирования : XviD 69

Аудио
Идентификатор : 1
Формат : AC-3
Формат/Информация : Audio Coding 3
Коммерческое название : Dolby Digital
Идентификатор кодека : 2000
Продолжительность : 45 м. 13 с.
Вид битрейта : Постоянный
Битрейт : 192 Кбит/сек
Каналы : 2 канала
Channel layout : L R
Частота : 48,0 КГц
Частота кадров : 31,250 кадров/сек (1536 SPF)
Битовая глубина : 16 бит
Метод сжатия : С потерями
Размер потока : 62,1 Мбайт (11%)
Выравнивание : Соединение по промежуткам
Service kind : Complete Main

Раздача ведётся путём добавления новых серий, при каждом добавлении создаётся новый торрент. Чтобы начать докачку новой серии, пользователям необходимо сделать следующее:
- Остановить скачивание.
- Удалить старый торрент у себя из клиента (старые серии удалять не надо).
- Скачать новый торрент и запустить его у себя в клиенте вместо старого, при этом указать клиенту путь в старую папку куда и должно происходить скачивание новых серий.
Ваш клиент при этом должен произвести хеширование (проверку) старой папки (если не производит сам - помогите ему сделать это), и будет докачивать только те серии которых у вас ещё нет. Старые серии при этом не удаляются, а продолжают раздаваться!



Скачать Звездный путь: Вундеркинды через торрент https://i7-imageban-ru.translate.goog/out/2021/10/31/3c0dcdaed0936a2c7273c12ae0f2fcfd.png Скачать, смотреть онлайн Звездный путь: Вундеркинды бесплантно в хорошем качестве Описание: События разворачиваются в 2383 году — через пять лет после того, как «Вояджер» вернулся на Землю. Разношерстная группа подростков ... 8.7 10 7
Торрент: Зарегистрирован [2022-04-29 14:17] · скачан: 32 раз
Статус: √ проверено
Размер: 2.83 GB
Как cкачать? Как скачать Звездный путь: Вундеркинды через торрент | UTorrent

28-11-2019 20:33  


Отключить вcю реклaмy на сайте, в т.ч. и в плеере онлайн просмотра!

    Дорогой пользователь! Огромная просьба, поблагодарите релизера, оцените раздачу и оставьте свои комментарий, если Вы скачали Звездный путь: Вундеркинды через торрент бесплатно!!
    Комментировать посты могут только пользователи прошедшие не сложную регистрацию
    Показать сообщения:    


    Звездный путь: Вундеркинды через торрент
    Скачать бесплатно Звездный путь: Вундеркинды
    Звездный путь: Вундеркинды скачать торрент
    Звездный путь: Вундеркинды смотреть онлайн
    Cкачать фильм Звездный путь: Вундеркинды бесплатно
    Звездный путь: Вундеркинды скачать торрент в хорошем качестве
    Звездный путь: Вундеркинды смотреть онлайн бесплатно в хорошем качестве
    Вы не можете начинать темы
    Вы не можете отвечать на сообщения
    Вы не можете редактировать свои сообщения
    Вы не можете удалять свои сообщения
    Вы не можете голосовать в опросах
    Вы не можете прикреплять файлы к сообщениям
    Вы можете скачивать файлы
    Звездный путь: Вундеркинды / Star Trek: Prodigy / Сезон: 1 / Серии: 1-5 из 10 [2021, Фантастика, боевик, комедия, приключения, семейный, WEBRip] MVO [TVShows] смотреть онлайн, скачать торрент picoco.icu