Присоединяйтесь к нам в Telegram!, здесь всегда актуальный адрес сайта, оперативная поддержка и многое другое!!

>

5.9

iTunes

7.4

iTunes

9.4

1 сезон

1

7.4

2 сезон

7.2

iTunes

7.3

1 сезон

13

6.1

iTunes

8.3

Пиратка

30

ULTIMATE

pack

9.9

Лицензия

ВАЖНО

ИГРА 18+

pack

7.3

RePack

MK11

7.7

RePack

jed

7.8

RePack

fifa19

8.5

RePack

RDR2

RePack

NEED FOR SPEED™ PAYBACK

5 сезон

9 сезон

Бесстыжие 9 сезон

Все сериалы

все сериалы на PB.wtf

RePack

FAR CRY 5

Anonymous, доброй ночи, мы катастрофически не успеваем собрать деньги на оплату серверов, помогите нам пожалуйста 5,10,15р., для нас важна любая помощь . В качестве благодарности мы отключим Вам всю рекламу на сайте (укажите свой ник в строку Ваше имя)!

×
  
Magnet ссылка

Мистериум: Эффект Марко / Marco effekten (Мартин Зандвлиет) [2021, триллер, криминал, BDRip-AVC] DUB [iTunes] от ExKinoRay pb.wtf

Мистериум: Эффект Марко через торрент pb.wtf

Раздают: 5 [ 0 KB/s ]
Размер: 2.38 GB | Добавлен: 1 мес. 3 д. назад | Торрент скачан:67 раз
Смотреть онлайн Мистериум: Эффект Марко | Скачать    Ребята, помогите собрать деньги на оплату серверов!!!

02-11-2021 10:24 Мистериум: Эффект Марко Скачать торрент  


Мистериум: Эффект Марко / Marco effekten
Информация о фильме:
Название: Мистериум: Эффект Марко
Оригинальное название: Marco effekten
Год выхода: 2021
Жанр: Триллер, криминал
Режиссер: Мартин Зандвлиет

В ролях: Ульрих Томсен, Заки Юссеф, Софи Торп, Андерс Маттесен, Лобус Ола, Хенрик Ноэль Олесен, Томас В. Габриэльссон, Лиза Карлехед, Каспар Филлипсон, Луиз Гаммельгор

Описание: Подросток-иммигрант Марко Джеймсон становится свидетелем преступных дел своего дяди Золы, который организовал в Дании мафиозный клан. Когда на глазах мальчика дядя убивает человека, Марко сбегает, не желая быть преступником и навсегда остаться в нелегальном поле в этой стране. Мальчика ищут люди его дяди, которые должны вернуть Марко домой, а также комиссар полиции Карл Мьорк, расследующий убийство. «Мистериум: Эффект Марко» — датский криминальный триллер о подростке, который стал свидетелем жестокого убийства и вынужден скрываться от властей и своих родственников.



Страна: Дания, Германия
Студия: Nadcon Film, Nordisk Film Production
Продолжительность: 02:05:00
Перевод: Дублированный - iTunes



Информация о файле:
Кодек: AVC
Формат: MKV
Качество: BDRip-AVC | The.Marco.Effect.2021.BDREMUX.1080p.seleZen
Видео: MPEG-4 AVC, 1024x428, 24.000 fps, 2350kbps
Аудио RU: AC3, 6 ch, 48 kHz, 384 kbps
Субтитры: Английские

x264 info: frame I:1214 Avg QP:16.26 size: 61330
x264 info: frame P:34387 Avg QP:19.27 size: 25041
x264 info: frame B:144399 Avg QP:21.29 size: 8743
x264 info: consecutive B-frames: 1.3% 1.5% 4.6% 8.9% 18.1% 49.9% 8.9% 0.7% 2.4% 2.1% 1.6%
General
Unique ID : 172491768354315645724072479768545308578 (0x81C4B4C86F3DC52FABE2BDE2647BAFA2)
Complete name : D:uTorrentРипы wolf1245Marco effekten.2021.DUB.iTunes.BDRip-AVC.[wolf1245.ExKinoRay].mkv
Format : Matroska
Format version : Version 4
File size : 2.38 GiB
Duration : 2 h 5 min
Overall bit rate : 2 730 kb/s
Movie name : Marco effekten.2021.DUB.iTunes.BDRip-AVC.[wolf1245.ExKinoRay]
Encoded date : UTC 2021-11-02 10:07:15
Writing application : mkvmerge v62.0.0 ('Apollo') 64-bit
Writing library : libebml v1.4.2 + libmatroska v1.6.4
Video
ID : 1
Format : AVC
Format/Info : Advanced Video Codec
Format profile : High@L4.1
Format settings : CABAC / 12 Ref Frames
Format settings, CABAC : Yes
Format settings, Reference frames : 12 frames
Codec ID : V_MPEG4/ISO/AVC
Duration : 2 h 5 min
Bit rate : 2 350 kb/s
Width : 1 024 pixels
Height : 428 pixels
Display aspect ratio : 2.40:1
Frame rate mode : Constant
Frame rate : 24.000 FPS
Color space : YUV
Chroma subsampling : 4:2:0
Bit depth : 8 bits
Scan type : Progressive
Bits/(Pixel*Frame) : 0.223
Stream size : 2.05 GiB (86%)
Title : -=[wolf1245.ExKinoRay]=-
Writing library : x264 core 161 r3020 d198931
Encoding settings : cabac=1 / ref=12 / deblock=1:-3:-3 / analyse=0x3:0x133 / me=umh / subme=11 / psy=1 / psy_rd=1.03:0.05 / mixed_ref=1 / me_range=48 / chroma_me=1 / trellis=2 / 8x8dct=1 / cqm=0 / deadzone=21,11 / fast_pskip=1 / chroma_qp_offset=-3 / threads=10 / lookahead_threads=2 / sliced_threads=0 / nr=0 / decimate=0 / interlaced=0 / bluray_compat=0 / constrained_intra=0 / bframes=10 / b_pyramid=2 / b_adapt=2 / b_bias=0 / direct=3 / weightb=1 / open_gop=0 / weightp=2 / keyint=240 / keyint_min=24 / scenecut=40 / intra_refresh=0 / rc_lookahead=60 / rc=2pass / mbtree=0 / bitrate=2350 / ratetol=1.0 / qcomp=0.60 / qpmin=0 / qpmax=69 / qpstep=4 / cplxblur=20.0 / qblur=0.5 / vbv_maxrate=50000 / vbv_bufsize=62500 / nal_hrd=none / filler=0 / ip_ratio=1.40 / pb_ratio=1.30 / aq=1:0.80
Language : English
Default : Yes
Forced : No
Color range : Limited
Color primaries : BT.709
Transfer characteristics : BT.709
Matrix coefficients : BT.709
Audio
ID : 2
Format : AC-3
Format/Info : Audio Coding 3
Commercial name : Dolby Digital
Codec ID : A_AC3
Duration : 2 h 5 min
Bit rate mode : Constant
Bit rate : 384 kb/s
Channel(s) : 6 channels
Channel layout : L R C LFE Ls Rs
Sampling rate : 48.0 kHz
Frame rate : 31.250 FPS (1536 SPF)
Compression mode : Lossy
Stream size : 343 MiB (14%)
Title : iTunes | DUB
Language : Russian
Service kind : Complete Main
Default : Yes
Forced : No
Text
ID : 3
Format : UTF-8
Codec ID : S_TEXT/UTF8
Codec ID/Info : UTF-8 Plain Text
Duration : 1 h 57 min
Bit rate : 41 b/s
Count of elements : 920
Stream size : 36.2 KiB (0%)
Title : Full
Language : English
Default : No
Forced : No
Menu
00:00:00.000 : :Chapter 1
00:09:47.250 : :Chapter 2
00:18:46.208 : :Chapter 3
00:30:42.542 : :Chapter 4
00:41:52.500 : :Chapter 5
00:51:33.000 : :Chapter 6
01:02:05.208 : :Chapter 7
01:13:50.167 : :Chapter 8
01:23:31.625 : :Chapter 9
01:33:05.042 : :Chapter 10
01:44:10.792 : :Chapter 11
01:53:46.125 : :Chapter 12
Релиз от:
Автор релиза:
pb.wtf



Скачать Мистериум: Эффект Марко через торрент https://i116.fastpic.org/big/2021/1102/f7/fba89ddc2dd36279000687d02b19b1f7.jpg Скачать, смотреть онлайн Мистериум: Эффект Марко бесплантно в хорошем качестве Описание: Подросток-иммигрант Марко Джеймсон становится свидетелем преступных дел своего дяди Золы, который организовал в Дании мафиозный ... 10 10 3
Торрент: Зарегистрирован [2021-11-02 10:24] · скачан: 67 раз
Статус: √ проверено
Размер: 2.38 GB
Как cкачать? Как скачать Мистериум: Эффект Марко через торрент | UTorrent

28-11-2019 20:33  

Отключить всю рекламу на сайте

    Дорогой пользователь! Огромная просьба, поблагодарите релизера, оцените раздачу и оставьте свои комментарий, если Вы скачали Мистериум: Эффект Марко через торрент бесплатно!
    Комментировать посты могут только пользователи прошедшие не сложную регистрацию
    Показать сообщения:    

    Мистериум: Эффект Марко через торрент
    Скачать бесплатно Мистериум: Эффект Марко
    Мистериум: Эффект Марко скачать торрент
    Мистериум: Эффект Марко смотреть онлайн
    Cкачать фильм Мистериум: Эффект Марко бесплатно
    Мистериум: Эффект Марко скачать торрент в хорошем качестве
    Мистериум: Эффект Марко смотреть онлайн бесплатно в хорошем качестве


    Вы не можете начинать темы
    Вы не можете отвечать на сообщения
    Вы не можете редактировать свои сообщения
    Вы не можете удалять свои сообщения
    Вы не можете голосовать в опросах
    Вы не можете прикреплять файлы к сообщениям
    Вы можете скачивать файлы