Присоединяйтесь к нам в Telegram!, здесь всегда актуальный адрес сайта, оперативная поддержка и многое другое!!

>

5.9

iTunes

7.4

iTunes

9.4

1 сезон

1

7.4

2 сезон

7.2

iTunes

7.3

1 сезон

13

6.1

iTunes

8.3

Пиратка

30

ULTIMATE

pack

9.9

Лицензия

ВАЖНО

ИГРА 18+

pack

7.3

RePack

MK11

7.7

RePack

jed

7.8

RePack

fifa19

8.5

RePack

RDR2

RePack

NEED FOR SPEED™ PAYBACK

5 сезон

9 сезон

Бесстыжие 9 сезон

Все сериалы

все сериалы на PB.wtf

RePack

FAR CRY 5

Anonymous, доброй ночи, мы катастрофически не успеваем собрать деньги на оплату серверов, помогите нам пожалуйста 5,10,15р., для нас важна любая помощь . В качестве благодарности мы отключим Вам всю рекламу на сайте (укажите свой ник в строку Ваше имя)!

×
  
Magnet ссылка

Исчезнувший / My Son (Кристиан Карион) [2021, Триллер, драма, мелодрама, криминал, WEB-DLRip-AVC] DUB [Марафон, Локализованная версия] от ExKinoRay pb.wtf

Исчезнувший через торрент pb.wtf

Раздают: 3 [ 0 KB/s ]
Размер: 1.74 GB | Добавлен: 1 мес. 3 д. назад | Торрент скачан:95 раз
Смотреть онлайн Исчезнувший | Скачать    Ребята, помогите собрать деньги на оплату серверов!!!

02-11-2021 12:34 Исчезнувший Скачать торрент  


Исчезнувший / My Son
Информация о фильме:
Название: Исчезнувший
Оригинальное название: My Son
Год выхода: 2021
Жанр: Триллер, драма, мелодрама, криминал
Режиссер: Кристиан Карион

В ролях: Джеймс МакЭвой, Клер Фой, Джэми Мичи, Роберт Джек, Оуэн Уайтлоу, Марк Барретт, Пол Рэттрэй, Макс Уилсон, Майкл Морлэнд, Эндрю Джон Тейт

Описание: Во время очередной командировки Эдмонд узнает, что в детском лагере пропал его семилетний сын. Версий у следствия много, но зацепок нет совсем. Когда детектива, который связывает исчезновение ребенка с профессиональной деятельностью Эдмонда, отстраняют от дела, отец сам пускается на поиски.



Страна: Великобритания, Франция
Студия: Canal+ [fr], Ciné Plus, Creative Scotland, MadRiver Pictures, Sixteen Films, STX Films, Une Hirondelle Productions, Wild Bunch, Wild Bunch Germany
Продолжительность: 01:31:46
Перевод: Дублированный - Марафон



Информация о файле:
Кодек: AVC
Формат: MKV
Качество: WEB-DLRip-AVC
Видео: MPEG-4 AVC, 1024x428, 25.000 fps, 2043 kbps
Аудио RU: AC3, 6 ch, 48 kHz, 448 kbps
Аудио EN: AC3, 6 ch, 48 kHz, 224 kbps
Субтитры: Русские (Full), английские

x264 info: frame I:720 Avg QP:11.38 size: 61119
x264 info: frame P:28305 Avg QP:14.37 size: 23286
x264 info: frame B:108647 Avg QP:16.37 size: 6459
x264 info: consecutive B-frames: 1.5% 2.5% 6.0% 20.5% 12.6% 36.1% 6.5% 10.4% 2.8% 0.7% 0.4%
General
Unique ID : 190517367594855644278882582829352620721 (0x8F544F70FAAF0965D155141ED48412B1)
Complete name : D:uTorrentРипы wolf1245My Son.2021.DUB.MARAFON.WEB-DLRip-AVC.[wolf1245.ExKinoRay].mkv
Format : Matroska
Format version : Version 4
File size : 1.74 GiB
Duration : 1 h 31 min
Overall bit rate : 2 715 kb/s
Movie name : My Son.2021.DUB.MARAFON.WEB-DLRip-AVC.[wolf1245.ExKinoRay]
Encoded date : UTC 2021-11-02 12:17:46
Writing application : mkvmerge v62.0.0 ('Apollo') 64-bit
Writing library : libebml v1.4.2 + libmatroska v1.6.4
Video
ID : 1
Format : AVC
Format/Info : Advanced Video Codec
Format profile : High@L4.1
Format settings : CABAC / 12 Ref Frames
Format settings, CABAC : Yes
Format settings, Reference frames : 12 frames
Codec ID : V_MPEG4/ISO/AVC
Duration : 1 h 31 min
Bit rate : 2 043 kb/s
Width : 1 024 pixels
Height : 428 pixels
Display aspect ratio : 2.40:1
Frame rate mode : Constant
Frame rate : 25.000 FPS
Color space : YUV
Chroma subsampling : 4:2:0
Bit depth : 8 bits
Scan type : Progressive
Bits/(Pixel*Frame) : 0.186
Stream size : 1.31 GiB (75%)
Writing library : x264 core 161 r3020 d198931
Encoding settings : cabac=1 / ref=12 / deblock=1:-3:-2 / analyse=0x3:0x133 / me=umh / subme=10 / psy=1 / psy_rd=1.02:0.05 / mixed_ref=1 / me_range=48 / chroma_me=1 / trellis=2 / 8x8dct=1 / cqm=0 / deadzone=21,11 / fast_pskip=1 / chroma_qp_offset=-3 / threads=10 / lookahead_threads=2 / sliced_threads=0 / nr=0 / decimate=0 / interlaced=0 / bluray_compat=0 / constrained_intra=0 / bframes=10 / b_pyramid=2 / b_adapt=2 / b_bias=0 / direct=3 / weightb=1 / open_gop=0 / weightp=2 / keyint=250 / keyint_min=25 / scenecut=40 / intra_refresh=0 / rc_lookahead=60 / rc=2pass / mbtree=0 / bitrate=2043 / ratetol=1.0 / qcomp=0.60 / qpmin=0 / qpmax=69 / qpstep=4 / cplxblur=20.0 / qblur=0.5 / vbv_maxrate=50000 / vbv_bufsize=62500 / nal_hrd=none / filler=0 / ip_ratio=1.40 / pb_ratio=1.30 / aq=3:0.80
Language : English
Default : Yes
Forced : No
Audio #1
ID : 2
Format : AC-3
Format/Info : Audio Coding 3
Commercial name : Dolby Digital
Codec ID : A_AC3
Duration : 1 h 31 min
Bit rate mode : Constant
Bit rate : 448 kb/s
Channel(s) : 6 channels
Channel layout : L R C LFE Ls Rs
Sampling rate : 48.0 kHz
Frame rate : 31.250 FPS (1536 SPF)
Compression mode : Lossy
Stream size : 294 MiB (16%)
Title : Dub [Marafon]
Language : Russian
Service kind : Complete Main
Default : No
Forced : No
Audio #2
ID : 3
Format : AC-3
Format/Info : Audio Coding 3
Commercial name : Dolby Digital
Codec ID : A_AC3
Duration : 1 h 31 min
Bit rate mode : Constant
Bit rate : 224 kb/s
Channel(s) : 6 channels
Channel layout : L R C LFE Ls Rs
Sampling rate : 48.0 kHz
Frame rate : 31.250 FPS (1536 SPF)
Compression mode : Lossy
Stream size : 147 MiB (8%)
Title : Original
Language : English
Service kind : Complete Main
Default : No
Forced : No
Text #1
ID : 4
Format : D_WEBVTT/SUBTITLES
Codec ID : D_WEBVTT/SUBTITLES
Duration : 1 h 24 min
Bit rate : 72 b/s
Count of elements : 877
Stream size : 44.5 KiB (0%)
Title : Full
Language : Russian
Default : Yes
Forced : No
Text #2
ID : 5
Format : D_WEBVTT/SUBTITLES
Codec ID : D_WEBVTT/SUBTITLES
Duration : 1 h 24 min
Bit rate : 55 b/s
Count of elements : 947
Stream size : 34.7 KiB (0%)
Language : English
Default : No
Forced : No
Text #3
ID : 6
Format : UTF-8
Codec ID : S_TEXT/UTF8
Codec ID/Info : UTF-8 Plain Text
Duration : 1 h 24 min
Bit rate : 69 b/s
Count of elements : 877
Stream size : 43.1 KiB (0%)
Title : Full
Language : Russian
Default : No
Forced : No
Text #4
ID : 7
Format : UTF-8
Codec ID : S_TEXT/UTF8
Codec ID/Info : UTF-8 Plain Text
Duration : 1 h 24 min
Bit rate : 53 b/s
Count of elements : 947
Stream size : 33.6 KiB (0%)
Language : English
Default : No
Forced : No
Релиз от:
Автор релиза:
pb.wtf



Скачать Исчезнувший через торрент https://i115.fastpic.org/big/2021/0917/e9/3050f7611f83f59bb3b90f2f288f3de9.jpg Скачать, смотреть онлайн Исчезнувший бесплантно в хорошем качестве Описание: Во время очередной командировки Эдмонд узнает, что в детском лагере пропал его семилетний сын. Версий у следствия много, но ... 10 10 3
Торрент: Зарегистрирован [2021-11-02 12:34] · скачан: 95 раз
Статус: √ проверено
Размер: 1.74 GB
Как cкачать? Как скачать Исчезнувший через торрент | UTorrent

28-11-2019 20:33  

Отключить всю рекламу на сайте

    Дорогой пользователь! Огромная просьба, поблагодарите релизера, оцените раздачу и оставьте свои комментарий, если Вы скачали Исчезнувший через торрент бесплатно!
    Комментировать посты могут только пользователи прошедшие не сложную регистрацию
    Показать сообщения:    

    Исчезнувший через торрент
    Скачать бесплатно Исчезнувший
    Исчезнувший скачать торрент
    Исчезнувший смотреть онлайн
    Cкачать фильм Исчезнувший бесплатно
    Исчезнувший скачать торрент в хорошем качестве
    Исчезнувший смотреть онлайн бесплатно в хорошем качестве


    Вы не можете начинать темы
    Вы не можете отвечать на сообщения
    Вы не можете редактировать свои сообщения
    Вы не можете удалять свои сообщения
    Вы не можете голосовать в опросах
    Вы не можете прикреплять файлы к сообщениям
    Вы можете скачивать файлы