Присоединяйтесь к нам в Telegram!, здесь всегда актуальный адрес сайта, оперативная поддержка и многое другое!!

>

5.9

iTunes

7.4

iTunes

9.4

1 сезон

1

7.4

2 сезон

7.2

iTunes

7.3

1 сезон

13

6.1

iTunes

8.3

GOG

30

ULTIMATE

pack

9.9

Лицензия

ВАЖНО

ИГРА 18+

pack

7.3

RePack

MK11

7.7

RePack

jed

7.8

RePack

fifa19

8.5

RePack

RDR2

RePack

NEED FOR SPEED™ PAYBACK

5 сезон

9 сезон

Бесстыжие 9 сезон

Все сериалы

все сериалы на PB.wtf

RePack

FAR CRY 5

Anonymous, доброй ночи, мы катастрофически не успеваем собрать деньги на оплату серверов, помогите нам пожалуйста 5,10,15р., для нас важна любая помощь . В качестве благодарности мы отключим Вам всю рекламу на сайте (укажите свой ник в строку Ваше имя)!

×
  
Magnet ссылка

Пункт назначения. Аэроплан / Mayday (Массимилиано Серки) [2019, Ужасы, боевик, драма, WEB-DLRip-AVC] VO [KION] от ExKinoRay pb.wtf

Пункт назначения. Аэроплан через торрент pb.wtf

Раздают: 2 [ 0 KB/s ]
Размер: 1.45 GB | Добавлен: 29 д. назад | Торрент скачан:105 раз
Смотреть онлайн Пункт назначения. Аэроплан | Скачать    Ребята, помогите собрать деньги на оплату серверов!!!

02-11-2021 14:42 Пункт назначения. Аэроплан Скачать торрент  


Пункт назначения. Аэроплан / Mayday
Информация о фильме:
Название: Пункт назначения. Аэроплан
Оригинальное название: Mayday
Год выхода: 2019
Жанр: Ужасы, боевик, драма
Режиссер: Массимилиано Серки

В ролях: Майкл Паре, Кристал Сантос, Шанель Райан, Винсент Ривера, Карлос Мендес, Майкл Уэйнрайт, Скотт Энгротти, Ларри Флеминг, Радж Кала, Кристофер Драммонд

Описание: Во время штатного рейса из Лос-Анджелеса в Лондон возникают непонятные перебои электричества, потом непонятным образом начинают исчезать люди. Оставшиеся пассажиры и воздушный маршал изо всех сил пытаются разобраться в происходящем.



Страна: США
Студия: High Point Pictures
Продолжительность: 01:16:08
Перевод: Профессиональный (одноголосый, закадровый) - KION



Информация о файле:
Кодек: AVC
Формат: MKV
Качество: WEB-DLRip-AVC
Видео: MPEG-4 AVC, 1024x552, 24,000 fps, 2280 kbps
Аудио RU: AC3, 6 ch, 48 kHz, 448 kbps

x264 info: frame I:825 Avg QP:10.70 size: 50879
x264 info: frame P:25138 Avg QP:12.03 size: 25034
x264 info: frame B:83660 Avg QP:14.23 size: 7396
x264 info: consecutive B-frames: 4.2% 3.5% 7.8% 15.6% 14.1% 25.7% 26.1% 1.7% 0.4% 0.2% 0.7%
General
Unique ID : 119114927843043187597680224541613422127 (0x599CB35CDB8A27CB5FCA57B89872F62F)
Complete name : D:uTorrentРипы wolf1245Mayday.2019.MVO.KION.WEB-DLRip-AVC.[wolf1245.ExKinoRay].mkv
Format : Matroska
Format version : Version 4
File size : 1.45 GiB
Duration : 1 h 16 min
Overall bit rate : 2 723 kb/s
Movie name : Mayday.2019.MVO.KION.WEB-DLRip-AVC.[wolf1245.ExKinoRay]
Encoded date : UTC 2021-11-02 14:26:37
Writing application : mkvmerge v62.0.0 ('Apollo') 64-bit
Writing library : libebml v1.4.2 + libmatroska v1.6.4
Video
ID : 1
Format : AVC
Format/Info : Advanced Video Codec
Format profile : High@L4.1
Format settings : CABAC / 12 Ref Frames
Format settings, CABAC : Yes
Format settings, Reference frames : 12 frames
Codec ID : V_MPEG4/ISO/AVC
Duration : 1 h 16 min
Bit rate : 2 280 kb/s
Width : 1 024 pixels
Height : 552 pixels
Display aspect ratio : 1.85:1
Frame rate mode : Constant
Frame rate : 24.000 FPS
Color space : YUV
Chroma subsampling : 4:2:0
Bit depth : 8 bits
Scan type : Progressive
Bits/(Pixel*Frame) : 0.168
Stream size : 1.21 GiB (84%)
Title : WEB-DLRip-AVC.[wolf1245.ExKinoRay]
Writing library : x264 core 161 r3020 d198931
Encoding settings : cabac=1 / ref=12 / deblock=1:-2:-2 / analyse=0x3:0x133 / me=umh / subme=10 / psy=1 / psy_rd=1.05:0.10 / mixed_ref=1 / me_range=32 / chroma_me=1 / trellis=2 / 8x8dct=1 / cqm=0 / deadzone=21,11 / fast_pskip=1 / chroma_qp_offset=-3 / threads=10 / lookahead_threads=2 / sliced_threads=0 / nr=0 / decimate=0 / interlaced=0 / bluray_compat=0 / constrained_intra=0 / bframes=10 / b_pyramid=2 / b_adapt=2 / b_bias=0 / direct=3 / weightb=1 / open_gop=0 / weightp=2 / keyint=240 / keyint_min=24 / scenecut=40 / intra_refresh=0 / rc_lookahead=60 / rc=2pass / mbtree=0 / bitrate=2280 / ratetol=1.0 / qcomp=0.60 / qpmin=0 / qpmax=69 / qpstep=4 / cplxblur=20.0 / qblur=0.5 / vbv_maxrate=50000 / vbv_bufsize=62500 / nal_hrd=none / filler=0 / ip_ratio=1.40 / pb_ratio=1.30 / aq=3:0.80
Language : English
Default : Yes
Forced : No
Audio
ID : 2
Format : AC-3
Format/Info : Audio Coding 3
Commercial name : Dolby Digital
Codec ID : A_AC3
Duration : 1 h 16 min
Bit rate mode : Constant
Bit rate : 448 kb/s
Channel(s) : 6 channels
Channel layout : L R C LFE Ls Rs
Sampling rate : 48.0 kHz
Frame rate : 31.250 FPS (1536 SPF)
Compression mode : Lossy
Stream size : 244 MiB (16%)
Title : MVO | KION
Language : Russian
Service kind : Complete Main
Default : Yes
Forced : No
Релиз от:
Автор релиза:
pb.wtf



Скачать Пункт назначения. Аэроплан через торрент https://i2.imageban.ru/out/2021/10/31/5de30c6f275ed04c5b1539a6c2d1a7ed.jpg Скачать, смотреть онлайн Пункт назначения. Аэроплан бесплантно в хорошем качестве Описание: Во время штатного рейса из Лос-Анджелеса в Лондон возникают непонятные перебои электричества, потом непонятным образом начинают ... 8.7 10 12
Торрент: Зарегистрирован [2021-11-02 14:42] · скачан: 105 раз
Статус: √ проверено
Размер: 1.45 GB
Как cкачать? Как скачать Пункт назначения. Аэроплан через торрент | UTorrent



Последний раз редактировалось: Lithuania (2021-11-02 17:08), всего редактировалось 1 раз

28-11-2019 20:33  

Отключить всю рекламу на сайте

02-11-2021 15:31 Пункт назначения. Аэроплан Скачать торрент  

Судя по скринам, фильм страшный!!!pb.wtf



02-11-2021 15:33 Пункт назначения. Аэроплан Скачать торрент  

Я смотрю сейчас модно лепить к названию фильма "Пункт назначения".pb.wtf



02-11-2021 18:36 Пункт назначения. Аэроплан Скачать торрент  

morf137xx писал(а):

Судя по скринам, фильм страшный!!!

ну да,ни дай Бог таких стюардесс с собой в рейс взять)pb.wtf



02-11-2021 19:42 Пункт назначения. Аэроплан Скачать торрент  

Фильм не имеет отношения к франшизе "Пункт назначения"pb.wtf



02-11-2021 19:54 Пункт назначения. Аэроплан Скачать торрент  

Рыгальня а не фильм, кто должен такую ахинею смотреть? pb.wtf



08-11-2021 08:41 Пункт назначения. Аэроплан Скачать торрент  

Какая ерунда...pb.wtf



    Дорогой пользователь! Огромная просьба, поблагодарите релизера, оцените раздачу и оставьте свои комментарий, если Вы скачали Пункт назначения. Аэроплан через торрент бесплатно!
    Комментировать посты могут только пользователи прошедшие не сложную регистрацию
    Показать сообщения:    

    Пункт назначения. Аэроплан через торрент
    Скачать бесплатно Пункт назначения. Аэроплан
    Пункт назначения. Аэроплан скачать торрент
    Пункт назначения. Аэроплан смотреть онлайн
    Cкачать фильм Пункт назначения. Аэроплан бесплатно
    Пункт назначения. Аэроплан скачать торрент в хорошем качестве
    Пункт назначения. Аэроплан смотреть онлайн бесплатно в хорошем качестве


    Вы не можете начинать темы
    Вы не можете отвечать на сообщения
    Вы не можете редактировать свои сообщения
    Вы не можете удалять свои сообщения
    Вы не можете голосовать в опросах
    Вы не можете прикреплять файлы к сообщениям
    Вы можете скачивать файлы