Присоединяйтесь к нам в Telegram!, здесь всегда актуальный адрес сайта, оперативная поддержка и многое другое!!

>

5.9

iTunes

7.4

iTunes

9.4

1 сезон

1

7.4

2 сезон

7.2

iTunes

7.3

1 сезон

13

6.1

iTunes

8.3

GOG

30

ULTIMATE

pack

9.9

Лицензия

ВАЖНО

ИГРА 18+

pack

7.3

RePack

MK11

7.7

RePack

jed

7.8

RePack

fifa19

8.5

RePack

RDR2

RePack

NEED FOR SPEED™ PAYBACK

5 сезон

9 сезон

Бесстыжие 9 сезон

Все сериалы

все сериалы на PB.wtf

RePack

FAR CRY 5

Anonymous, доброй ночи, мы катастрофически не успеваем собрать деньги на оплату серверов, помогите нам пожалуйста 5,10,15р., для нас важна любая помощь . В качестве благодарности мы отключим Вам всю рекламу на сайте (укажите свой ник в строку Ваше имя)!

×
  
Magnet ссылка

Айнбо. Сердце Амазонии / AINBO: Spirit of the Amazon (Рихард Клаус, Хосе Селада) [2021, Мультфильм, фэнтези, комедия, приключения, семейный, BDRip 1080p] DUB [СиПиАй Филмз / CPI Films] pb.wtf

Айнбо. Сердце Амазонии через торрент pb.wtf

Раздают: 6 [ 0 KB/s ]
Размер: 5.04 GB | Добавлен: 29 д. назад | Торрент скачан:99 раз
Смотреть онлайн Айнбо. Сердце Амазонии | Скачать    Ребята, помогите собрать деньги на оплату серверов!!!

03-11-2021 03:08 Айнбо. Сердце Амазонии Скачать торрент  

Айнбо. Сердце Амазонии | AINBO: Spirit of the Amazon
Год выпуска: 2021
Страна: Перу, Нидерланды
Студия: Cinema Management Group, Tunche Films
Жанр: Мультфильм, фэнтези, комедия, приключения, семейный
Продолжительность: 01:24:39
Перевод: Дублированный | СиПиАй Филмз / CPI Films
Субтитры: Русские (Full), английские

Режиссер: Рихард Клаус, Хосе Селада

rating

В ролях: Том Хоффман, Бернардо де Паула, Джо Эрнандес, Дино Андраде, Алехандра Гольяс, Йени Альварез, Лола Раи, Сусана Баллестерос, Рене Мухика, Жерардо Прат

Описание: История о девочке Айнбо, которая родилась и выросла в глубоких джунглях Амазонки. Однажды она узнает, что ее родине грозит опасность, а их племя вовсе не единственное во всем мире. Героине придется сражаться не только против алчных чужаков, но и против древнего зла, живущего в Амазонке. С помощью духа ее матери Айнбо предстоит спасти свою землю и свой народ, пока не стало слишком поздно.

Качество: BDRip 1080p
Формат: MKV

Видео: MPEG-4 AVC, 1920x804, 7435 Kbit/s, 24.000 fps
Аудио #01: 48 kHz, AC3, 5.1, 448 Kbps | Дублированный | СиПиАй Филмз / CPI Films | RUS |
Аудио #02: 48 kHz, AC3, 5.1, 640 Kbps | Оригинал | ENG |
скриншот  скриншот  скриншот  скриншот  скриншот  

General
Unique ID : 319795065400398916047545799476512876902 (0xF0964A0C6E7985998A22B2CACA00E966)
Complete name : E:VideoAINBO.Spirit.of.the.Amazon.2021.BDRip.1080p.seleZen.mkv
Format : Matroska
Format version : Version 4
File size : 5.04 GiB
Duration : 1 h 24 min
Overall bit rate : 8 517 kb/s
Movie name : AINBO: Spirit of the Amazon 2021 from seleZen
Encoded date : UTC 2021-11-02 23:24:55
Writing application : mkvmerge v59.0.0 ('Shining Star') 64-bit
Writing library : libebml v1.4.2 + libmatroska v1.6.4

Video
ID : 1
Format : AVC
Format/Info : Advanced Video Codec
Format profile : High@L4.1
Format settings : CABAC / 5 Ref Frames
Format settings, CABAC : Yes
Format settings, Reference frames : 5 frames
Codec ID : V_MPEG4/ISO/AVC
Duration : 1 h 24 min
Bit rate : 7 435 kb/s
Width : 1 920 pixels
Height : 804 pixels
Display aspect ratio : 2.40:1
Frame rate mode : Constant
Frame rate : 24.000 FPS
Color space : YUV
Chroma subsampling : 4:2:0
Bit depth : 8 bits
Scan type : Progressive
Bits/(Pixel*Frame) : 0.201
Stream size : 4.39 GiB (87%)
Writing library : x264 core 146 -from seleZen
Encoding settings : cabac=1 / ref=5 / deblock=1:-3:-3 / analyse=0x3:0x133 / me=umh / subme=10 / psy=1 / psy_rd=1.02:0.03 / mixed_ref=1 / me_range=48 / chroma_me=1 / trellis=2 / 8x8dct=1 / cqm=0 / deadzone=21,11 / fast_pskip=0 / chroma_qp_offset=-3 / threads=36 / lookahead_threads=6 / sliced_threads=0 / nr=0 / decimate=0 / interlaced=0 / bluray_compat=0 / constrained_intra=0 / bframes=9 / b_pyramid=2 / b_adapt=2 / b_bias=0 / direct=3 / weightb=1 / open_gop=0 / weightp=2 / keyint=240 / keyint_min=23 / scenecut=40 / intra_refresh=0 / rc_lookahead=50 / rc=2pass / mbtree=0 / bitrate=7435 / ratetol=1.0 / qcomp=0.60 / qpmin=0 / qpmax=51 / qpstep=4 / cplxblur=20.0 / qblur=0.5 / vbv_maxrate=50000 / vbv_bufsize=62500 / nal_hrd=none / filler=0 / ip_ratio=1.40 / pb_ratio=1.30 / aq=3:0.80
Language : English
Default : Yes
Forced : No

Audio #1
ID : 2
Format : AC-3
Format/Info : Audio Coding 3
Commercial name : Dolby Digital
Codec ID : A_AC3
Duration : 1 h 24 min
Bit rate mode : Constant
Bit rate : 448 kb/s
Channel(s) : 6 channels
Channel layout : L R C LFE Ls Rs
Sampling rate : 48.0 kHz
Frame rate : 31.250 FPS (1536 SPF)
Compression mode : Lossy
Stream size : 270 MiB (5%)
Title : Dub
Language : Russian
Service kind : Complete Main
Default : Yes
Forced : Yes

Audio #2
ID : 3
Format : AC-3
Format/Info : Audio Coding 3
Commercial name : Dolby Digital
Codec ID : A_AC3
Duration : 1 h 24 min
Bit rate mode : Constant
Bit rate : 640 kb/s
Channel(s) : 6 channels
Channel layout : L R C LFE Ls Rs
Sampling rate : 48.0 kHz
Frame rate : 31.250 FPS (1536 SPF)
Compression mode : Lossy
Stream size : 388 MiB (8%)
Title : Original
Language : English
Service kind : Complete Main
Default : No
Forced : No

Text #1
ID : 4
Format : UTF-8
Codec ID : S_TEXT/UTF8
Codec ID/Info : UTF-8 Plain Text
Duration : 1 h 17 min
Bit rate : 77 b/s
Count of elements : 1016
Stream size : 44.0 KiB (0%)
Title : Full
Language : Russian
Default : No
Forced : No

Text #2
ID : 5
Format : UTF-8
Codec ID : S_TEXT/UTF8
Codec ID/Info : UTF-8 Plain Text
Duration : 1 h 21 min
Bit rate : 49 b/s
Count of elements : 1048
Stream size : 29.5 KiB (0%)
Title : Full
Language : English
Default : No
Forced : No

Menu
00:00:00.000 : Глава 01
00:07:39.375 : Глава 02
00:15:37.833 : Глава 03
00:23:46.500 : Глава 04
00:29:52.417 : Глава 05
00:35:38.958 : Глава 06
00:42:04.458 : Глава 07
00:48:36.875 : Глава 08
00:56:07.917 : Глава 09
01:03:07.875 : Глава 10
01:10:26.125 : Глава 11
01:18:34.875 : Глава 12

pb.wtf



Скачать Айнбо. Сердце Амазонии через торрент https://i114.fastpic.ru/big/2021/0612/8e/696c5489a8b124874a4146c21fe5728e.jpg Скачать, смотреть онлайн Айнбо. Сердце Амазонии бесплантно в хорошем качестве Описание: История о девочке Айнбо, которая родилась и выросла в глубоких джунглях Амазонки. Однажды она узнает, что ее родине грозит ... 10 10 6
Торрент: Зарегистрирован [2021-11-03 03:08] · скачан: 99 раз
Статус: √ проверено
Размер: 5.04 GB
Как cкачать? Как скачать Айнбо. Сердце Амазонии через торрент | UTorrent

% Раздел Тема Автор DL S | L
Иностранные мультфильмы [ 1.46 GB ] Айнбо. Сердце Амазонии / AINBO: Spirit of the Amazon [2021 Мультфильм BDRip] - [CPI Films] Twi7ter Скачать
7 | 0
Зарубежные Мультфильмы (BDRip 1080p, 720p, Blu-ray, BD-Remux) [ 13.25 GB ] Айнбо. Сердце Амазонии / AINBO: Spirit of the Amazon [2021 Мультфильм BD Remux 1080p] DUB [СиПиАй Филмз / CPI Films] bober100 Скачать
1 | 0
Иностранные мультфильмы [ 1.44 GB ] Айнбо. Сердце Амазонии / AINBO: Spirit of the Amazon [2021 Мультфильм WEB-DLRip-AVC] от MediaBit Lithuania Скачать
1 | 0
Зарубежные Мультфильмы (WEB-DL 720p, 1080p) [ 2.77 GB ] Айнбо. Сердце Амазонии / AINBO: Spirit of the Amazon [2021 Мультфильм WEB-DL 1080p] bober100 Скачать
9 | 0
Иностранные мультфильмы [ 1.46 GB ] Айнбо. Сердце Амазонии / AINBO: Spirit of the Amazon [2021 Мультфильм WEB-DLRip] bober100 Скачать
1 | 0

28-11-2019 20:33  

Отключить всю рекламу на сайте

    Дорогой пользователь! Огромная просьба, поблагодарите релизера, оцените раздачу и оставьте свои комментарий, если Вы скачали Айнбо. Сердце Амазонии через торрент бесплатно!
    Комментировать посты могут только пользователи прошедшие не сложную регистрацию
    Показать сообщения:    

    Айнбо. Сердце Амазонии через торрент
    Скачать бесплатно Айнбо. Сердце Амазонии
    Айнбо. Сердце Амазонии скачать торрент
    Айнбо. Сердце Амазонии смотреть онлайн
    Cкачать фильм Айнбо. Сердце Амазонии бесплатно
    Айнбо. Сердце Амазонии скачать торрент в хорошем качестве
    Айнбо. Сердце Амазонии смотреть онлайн бесплатно в хорошем качестве


    Вы не можете начинать темы
    Вы не можете отвечать на сообщения
    Вы не можете редактировать свои сообщения
    Вы не можете удалять свои сообщения
    Вы не можете голосовать в опросах
    Вы не можете прикреплять файлы к сообщениям
    Вы можете скачивать файлы