Присоединяйтесь к нам в Telegram!, здесь всегда актуальный адрес сайта, оперативная поддержка и многое другое!!

>

5.9

iTunes

7.4

iTunes

9.4

1 сезон

1

7.4

2 сезон

7.2

iTunes

7.3

1 сезон

13

6.1

iTunes

8.3

GOG

30

ULTIMATE

pack

9.9

Лицензия

ВАЖНО

ИГРА 18+

pack

7.3

RePack

MK11

7.7

RePack

jed

7.8

RePack

fifa19

8.5

RePack

RDR2

RePack

NEED FOR SPEED™ PAYBACK

5 сезон

9 сезон

Бесстыжие 9 сезон

Все сериалы

все сериалы на PB.wtf

RePack

FAR CRY 5

Anonymous, доброй ночи, мы катастрофически не успеваем собрать деньги на оплату серверов, помогите нам пожалуйста 5,10,15р., для нас важна любая помощь . В качестве благодарности мы отключим Вам всю рекламу на сайте (укажите свой ник в строку Ваше имя)!

×
  
Magnet ссылка

Битва на Шельде / De slag om de Schelde / The Forgotten Battle (Маттис ван Хейниген) [2020, Военный, боевик, драма, история, WEB-DLRip-AVC] DVO [Pazl Voice] от ExKinoRay pb.wtf

Битва на Шельде через торрент pb.wtf

Раздают: 1 [ 0 KB/s ]
Размер: 2.29 GB | Добавлен: 28 д. назад | Торрент скачан:185 раз
Смотреть онлайн Битва на Шельде | Скачать    Ребята, помогите собрать деньги на оплату серверов!!!

03-11-2021 17:46 Битва на Шельде Скачать торрент  


Битва на Шельде / De slag om de Schelde / The Forgotten Battle
Информация о фильме:
Название: Битва на Шельде
Оригинальное название: De slag om de Schelde / The Forgotten Battle
Год выхода: 2020
Жанр: Военный, боевик, драма, история
Режиссер: Маттис ван Хейниген мл.

В ролях: Хайс Блом, Джэми Флэттерс, Сьюзан Рэддер, Ян Бейвут, Том Фелтон, Коэн Брил, Тео Барклем-Биггз, Скотт Рид, Марта Шнайдер, Рональд Калтер
Описание: В битве на Шельде — одном из решающих сражений Второй мировой — трагически сплетаются судьбы пилота планера, солдата фашистской армии и невольной участницы Сопротивления.



Страна: Нидерланды, Литва, Бельгия
Студия: Evangelische Omroep (EO), Caviar Films, Levitate Film
Продолжительность: 02:07:28
Перевод: Любительский (двухголосый, закадровый) - Pazl Voice



Информация о файле:
Кодек: AVC
Формат: MKV
Качество: WEB-DLRip-AVC
Видео: MPEG-4 AVC, 1024x428, 24,000 fps, 1680 kbps
Аудио RU: AC3, 6 ch, 48 kHz, 448 kbps
Аудио EN: AC3, 6 ch, 48 kHz, 448 kbps
Субтитры: Русские, английские, украинские

x264 info: frame I:1328 Avg QP:13.61 size: 51474
x264 info: frame P:37858 Avg QP:17.24 size: 19256
x264 info: frame B:144356 Avg QP:18.91 size: 5553
x264 info: consecutive B-frames: 2.2% 2.5% 8.8% 13.7% 10.8% 39.2% 12.8% 1.9% 1.9% 2.1% 4.2%
General
Unique ID : 65727988000687573681312007425874599907 (0x3172C001CD1ECCCC920F831D6EAE1FE3)
Complete name : D:uTorrentРипы wolf1245The Forgotten Battle.2021.DVO.Pazl.WEB-DLRip-AVC.[wolf1245.ExKinoRay].mkv
Format : Matroska
Format version : Version 4
File size : 2.29 GiB
Duration : 2 h 7 min
Overall bit rate : 2 571 kb/s
Movie name : The Forgotten Battle.2021.DVO.Pazl.WEB-DLRip-AVC.[wolf1245.ExKinoRay]
Encoded date : UTC 2021-11-03 17:28:03
Writing application : mkvmerge v62.0.0 ('Apollo') 64-bit
Writing library : libebml v1.4.2 + libmatroska v1.6.4
Video
ID : 1
Format : AVC
Format/Info : Advanced Video Codec
Format profile : High@L4.1
Format settings : CABAC / 12 Ref Frames
Format settings, CABAC : Yes
Format settings, Reference frames : 12 frames
Codec ID : V_MPEG4/ISO/AVC
Duration : 2 h 7 min
Bit rate : 1 680 kb/s
Width : 1 024 pixels
Height : 428 pixels
Display aspect ratio : 2.40:1
Frame rate mode : Constant
Frame rate : 24.000 FPS
Color space : YUV
Chroma subsampling : 4:2:0
Bit depth : 8 bits
Scan type : Progressive
Bits/(Pixel*Frame) : 0.160
Stream size : 1.49 GiB (65%)
Title : -=[wolf1245.ExKinoRay]=-
Writing library : x264 core 161 r3020 d198931
Encoding settings : cabac=1 / ref=12 / deblock=1:-2:-2 / analyse=0x3:0x133 / me=umh / subme=10 / psy=1 / psy_rd=1.05:0.15 / mixed_ref=1 / me_range=32 / chroma_me=1 / trellis=2 / 8x8dct=1 / cqm=0 / deadzone=21,11 / fast_pskip=1 / chroma_qp_offset=-3 / threads=10 / lookahead_threads=2 / sliced_threads=0 / nr=0 / decimate=0 / interlaced=0 / bluray_compat=0 / constrained_intra=0 / bframes=10 / b_pyramid=2 / b_adapt=2 / b_bias=0 / direct=3 / weightb=1 / open_gop=0 / weightp=2 / keyint=240 / keyint_min=24 / scenecut=40 / intra_refresh=0 / rc_lookahead=60 / rc=2pass / mbtree=0 / bitrate=1680 / ratetol=1.0 / qcomp=0.60 / qpmin=0 / qpmax=69 / qpstep=4 / cplxblur=20.0 / qblur=0.5 / vbv_maxrate=50000 / vbv_bufsize=62500 / nal_hrd=none / filler=0 / ip_ratio=1.40 / pb_ratio=1.30 / aq=3:0.90
Language : English
Default : Yes
Forced : No
Audio #1
ID : 2
Format : AC-3
Format/Info : Audio Coding 3
Commercial name : Dolby Digital
Codec ID : A_AC3
Duration : 2 h 7 min
Bit rate mode : Constant
Bit rate : 448 kb/s
Channel(s) : 6 channels
Channel layout : L R C LFE Ls Rs
Sampling rate : 48.0 kHz
Frame rate : 31.250 FPS (1536 SPF)
Compression mode : Lossy
Stream size : 408 MiB (17%)
Title : [DVO] Pazl Voice
Language : Russian
Service kind : Complete Main
Default : Yes
Forced : No
Audio #2
ID : 3
Format : AC-3
Format/Info : Audio Coding 3
Commercial name : Dolby Digital
Codec ID : A_AC3
Duration : 2 h 7 min
Bit rate mode : Constant
Bit rate : 448 kb/s
Channel(s) : 6 channels
Channel layout : L R C LFE Ls Rs
Sampling rate : 48.0 kHz
Frame rate : 31.250 FPS (1536 SPF)
Compression mode : Lossy
Stream size : 408 MiB (17%)
Title : Original
Language : English
Service kind : Complete Main
Default : No
Forced : No
Text #1
ID : 4
Format : UTF-8
Codec ID : S_TEXT/UTF8
Codec ID/Info : UTF-8 Plain Text
Duration : 2 h 6 min
Bit rate : 38 b/s
Count of elements : 932
Stream size : 35.9 KiB (0%)
Title : Russian
Language : Russian
Default : No
Forced : No
Text #2
ID : 5
Format : UTF-8
Codec ID : S_TEXT/UTF8
Codec ID/Info : UTF-8 Plain Text
Duration : 2 h 4 min
Bit rate : 14 b/s
Count of elements : 528
Stream size : 13.5 KiB (0%)
Title : English
Language : English
Default : No
Forced : No
Text #3
ID : 6
Format : UTF-8
Codec ID : S_TEXT/UTF8
Codec ID/Info : UTF-8 Plain Text
Duration : 2 h 6 min
Bit rate : 40 b/s
Count of elements : 923
Stream size : 37.1 KiB (0%)
Title : Ukrainian
Language : Ukrainian
Default : No
Forced : No
Релиз от:
Автор релиза:
pb.wtf



Скачать Битва на Шельде через торрент http://lostpix.com/img/2021-11/03/vuj1nxs45glngmtojy2c3nfu1.jpg Скачать, смотреть онлайн Битва на Шельде бесплантно в хорошем качестве Описание: В битве на Шельде — одном из решающих сражений Второй мировой — трагически сплетаются судьбы пилота планера, солдата фашистской ... 8.9 10 12
Info! Золотая раздача, скачанное не засчитывается.
Торрент: Зарегистрирован [2021-11-03 17:46] · скачан: 185 раз
Статус: T временная
Размер: 2.29 GB
Как cкачать? Как скачать Битва на Шельде через торрент | UTorrent

28-11-2019 20:33  

Отключить всю рекламу на сайте

03-11-2021 18:15 Битва на Шельде Скачать торрент  

"В битве на Шельде — одном из решающих сражений Второй мировой"-описание огонь )))pb.wtf



03-11-2021 20:23 Битва на Шельде Скачать торрент  

VitalyRus писал(а):

"В битве на Шельде — одном из решающих сражений Второй мировой"-описание огонь )))

pb.wtf



03-11-2021 20:43 Битва на Шельде Скачать торрент  

sadsad48 писал(а):

VitalyRus писал(а):

"В битве на Шельде — одном из решающих сражений Второй мировой"-описание огонь )))


так вот где немцы лопухнулись!
pb.wtf



03-11-2021 21:28 Битва на Шельде Скачать торрент  

Решающее сражение? Нихрена себе, не знал.pb.wtf



04-11-2021 01:38 Битва на Шельде Скачать торрент  

kolan1961 писал(а):

Решающее сражение? Нихрена себе, не знал.

решающее для союзников. 450 тыщ челов участвовало со стороны союзничков. если б канадцы просрали эту битву, советской армии пришлось бы давить фашистскую гниду в одинокого. а там хз как все повернулось бы. так что, возможно в чем-то описание правда.pb.wtf



04-11-2021 09:17 Битва на Шельде Скачать торрент  

tamburetko писал(а):

kolan1961 писал(а):

Решающее сражение? Нихрена себе, не знал.

решающее для союзников. 450 тыщ челов участвовало со стороны союзничков. если б канадцы просрали эту битву, советской армии пришлось бы давить фашистскую гниду в одинокого. а там хз как все повернулось бы. так что, возможно в чем-то описание правда.

Ну уж после Багратиона какой либо обсер Сююзников никак не повлиял бы на исход войны. Ну продлилась бы она пару месяц дольше ну максимум на полгодаpb.wtf



04-11-2021 13:04 Битва на Шельде Скачать торрент  

В описании все верно. Не путайте отечественную войну со второй мировой.

Втора́я мирова́я война́[~ 1] (1 сентября 1939 — 2 сентября 1945[25]) — война двух мировых военно-политических коалиций, ставшая крупнейшим вооружённым конфликтом в истории человечества.

В ней участвовали 62 государства из 74 существовавших на тот момент (80 % населения Земного шара[26]).

Боевые действия велись на территории Европы, Азии и Африки[~ 2] и в водах всех океанов. Это единственный конфликт, в котором было применено ядерное оружие. В результате войны погибло более 70 миллионов человек, из которых большинство — мирные жители.

Вели́кая Оте́чественная война́ (22 июня 1941 — 9 мая[5] 1945) — война Союза Советских Социалистических Республик, начавшаяся с вторжения на советскую территорию войск нацистской Германии и её европейских союзников (Венгрии, Италии, Румынии, Словакии, Финляндии, Хорватии) и закончившаяся освобождением от фашизма стран Центральной и Восточной Европы; важнейшая составная часть Второй мировой войны, завершившаяся победой Красной Армии и безоговорочной капитуляцией вооружённых сил Германии. В западных странах именуется «Восточным фронтом»[6], в Германии — также «Немецко-Советской войной».pb.wtf



04-11-2021 13:29 Битва на Шельде Скачать торрент  

а наши все равно-лучше!pb.wtf



07-11-2021 13:32 Битва на Шельде Скачать торрент  

BrodusClay111 писал(а):

tamburetko писал(а):

kolan1961 писал(а):

Решающее сражение? Нихрена себе, не знал.

решающее для союзников. 450 тыщ челов участвовало со стороны союзничков. если б канадцы просрали эту битву, советской армии пришлось бы давить фашистскую гниду в одинокого. а там хз как все повернулось бы. так что, возможно в чем-то описание правда.

Ну уж после Багратиона какой либо обсер Сююзников никак не повлиял бы на исход войны. Ну продлилась бы она пару месяц дольше ну максимум на полгода

Полгода такой войны и жертв со стороны СССР было бы еще больше! А вдруг и тебя бы не было здесь?pb.wtf



    Дорогой пользователь! Огромная просьба, поблагодарите релизера, оцените раздачу и оставьте свои комментарий, если Вы скачали Битва на Шельде через торрент бесплатно!
    Комментировать посты могут только пользователи прошедшие не сложную регистрацию
    Показать сообщения:    

    Битва на Шельде через торрент
    Скачать бесплатно Битва на Шельде
    Битва на Шельде скачать торрент
    Битва на Шельде смотреть онлайн
    Cкачать фильм Битва на Шельде бесплатно
    Битва на Шельде скачать торрент в хорошем качестве
    Битва на Шельде смотреть онлайн бесплатно в хорошем качестве


    Вы не можете начинать темы
    Вы не можете отвечать на сообщения
    Вы не можете редактировать свои сообщения
    Вы не можете удалять свои сообщения
    Вы не можете голосовать в опросах
    Вы не можете прикреплять файлы к сообщениям
    Вы можете скачивать файлы