Присоединяйтесь к нам в Telegram!, здесь всегда актуальный адрес сайта, оперативная поддержка и многое другое!!

>

5.9

iTunes

7.4

iTunes

9.4

1 сезон

1

7.4

2 сезон

7.2

iTunes

7.3

1 сезон

13

6.1

iTunes

8.3

GOG

30

ULTIMATE

pack

9.9

Лицензия

ВАЖНО

ИГРА 18+

pack

7.3

RePack

MK11

7.7

RePack

jed

7.8

RePack

fifa19

8.5

RePack

RDR2

RePack

NEED FOR SPEED™ PAYBACK

5 сезон

9 сезон

Бесстыжие 9 сезон

Все сериалы

все сериалы на PB.wtf

RePack

FAR CRY 5

Anonymous, доброй ночи, мы катастрофически не успеваем собрать деньги на оплату серверов, помогите нам пожалуйста 5,10,15р., для нас важна любая помощь . В качестве благодарности мы отключим Вам всю рекламу на сайте (укажите свой ник в строку Ваше имя)!

×
  
Magnet ссылка

Сигнал бедствия / Mayday (Карен Чинорре) [2021, Фэнтези, драма, детектив, WEB-DLRip-AVC] DUB [iTunes] от ExKinoRay pb.wtf

Сигнал бедствия через торрент pb.wtf

Размер: 1.85 GB | Добавлен: 28 д. назад | Торрент скачан:95 раз
Смотреть онлайн Сигнал бедствия | Скачать    Ребята, помогите собрать деньги на оплату серверов!!!

03-11-2021 19:31 Сигнал бедствия Скачать торрент  


Сигнал бедствия / Mayday
Информация о фильме:
Название: Сигнал бедствия
Оригинальное название: Mayday
Год выхода: 2021
Жанр: Фэнтези, драма, детектив
Режиссер: Карен Чинорре

В ролях: Грэйс Ван Паттен, Миа Гот, Гавана Роуз Лю, Стефани Соколински, Теодор Пеллерен, Джульетт Льюис, Франо Маскович, Златко Бурич, Франческо Пьячентини-Смит, Натаниэл Аллен

Описание: Уставшая от своей серой жизни Ана переносится в другую реальность, где встречает небольшую группу девушек, живущую на берегу бескрайнего моря. В этом мире вечная весна, а на фоне залитых солнцем пейзажей идёт бесконечная война. Подобно сиренам, девушки посылают сигналы бедствия, обрекая несчастных моряков на погибель. Но когда ситуация начинает выходить из-под контроля, Ана понимает, что, возможно, в этом мире ей не место, а путь назад таит в себе множество опасностей.



Страна: США
Студия: Complementary Colors, Magnolia Pictures, Queen's Army
Продолжительность: 01:39:49
Перевод: Дублированный - iTunes



Информация о файле:
Кодек: AVC
Формат: MKV
Качество: WEB-DLRip-AVC
Видео: MPEG-4 AVC, 1024x426, 23.976 fps, 1880 kbps
Аудио RU: AC3, 6 ch, 48 kHz, 384 kbps
Аудио EN: AC3, 6 ch, 48 kHz, 384 kbps
Субтитры: Русские (Full), английские

x264 info: frame I:1070 Avg QP:15.63 size: 70523
x264 info: frame P:32984 Avg QP:18.78 size: 19909
x264 info: frame B:109560 Avg QP:20.53 size: 6141
x264 info: consecutive B-frames: 2.4% 2.5% 4.0% 41.0% 12.6% 30.6% 2.2% 3.6% 0.4% 0.3% 0.6%
General
Unique ID : 76924312000517989733048974234298160734 (0x39DF15665F28B03FA4BB15DDFCF1165E)
Complete name : D:uTorrentРипы wolf1245Mayday..2021.DUB.iTunes.WEB-DLRip-AVC.[wolf1245.ExKinoRay].mkv
Format : Matroska
Format version : Version 4
File size : 1.85 GiB
Duration : 1 h 39 min
Overall bit rate : 2 646 kb/s
Movie name : Mayday..2021.DUB.iTunes.WEB-DLRip-AVC.[wolf1245.ExKinoRay]
Encoded date : UTC 2021-11-03 19:16:45
Writing application : mkvmerge v62.0.0 ('Apollo') 64-bit
Writing library : libebml v1.4.2 + libmatroska v1.6.4
Video
ID : 1
Format : AVC
Format/Info : Advanced Video Codec
Format profile : High@L4.1
Format settings : CABAC / 12 Ref Frames
Format settings, CABAC : Yes
Format settings, Reference frames : 12 frames
Codec ID : V_MPEG4/ISO/AVC
Duration : 1 h 39 min
Bit rate : 1 880 kb/s
Width : 1 024 pixels
Height : 426 pixels
Display aspect ratio : 2.40:1
Frame rate mode : Constant
Frame rate : 23.976 (24000/1001) FPS
Color space : YUV
Chroma subsampling : 4:2:0
Bit depth : 8 bits
Scan type : Progressive
Bits/(Pixel*Frame) : 0.180
Stream size : 1.31 GiB (71%)
Title : -=[wolf1245.ExKinoRay]=-
Writing library : x264 core 161 r3020 d198931
Encoding settings : cabac=1 / ref=12 / deblock=1:-2:-2 / analyse=0x3:0x133 / me=umh / subme=10 / psy=1 / psy_rd=1.05:0.10 / mixed_ref=1 / me_range=32 / chroma_me=1 / trellis=2 / 8x8dct=1 / cqm=0 / deadzone=21,11 / fast_pskip=1 / chroma_qp_offset=-3 / threads=10 / lookahead_threads=2 / sliced_threads=0 / nr=0 / decimate=0 / interlaced=0 / bluray_compat=0 / constrained_intra=0 / bframes=10 / b_pyramid=2 / b_adapt=2 / b_bias=0 / direct=3 / weightb=1 / open_gop=0 / weightp=2 / keyint=240 / keyint_min=24 / scenecut=40 / intra_refresh=0 / rc_lookahead=60 / rc=2pass / mbtree=0 / bitrate=1880 / ratetol=1.0 / qcomp=0.60 / qpmin=0 / qpmax=69 / qpstep=4 / cplxblur=20.0 / qblur=0.5 / vbv_maxrate=50000 / vbv_bufsize=62500 / nal_hrd=none / filler=0 / ip_ratio=1.40 / pb_ratio=1.30 / aq=3:0.80
Language : English
Default : Yes
Forced : No
Color range : Limited
Color primaries : BT.709
Transfer characteristics : BT.709
Matrix coefficients : BT.709
Audio #1
ID : 2
Format : AC-3
Format/Info : Audio Coding 3
Commercial name : Dolby Digital
Codec ID : A_AC3
Duration : 1 h 39 min
Bit rate mode : Constant
Bit rate : 384 kb/s
Channel(s) : 6 channels
Channel layout : L R C LFE Ls Rs
Sampling rate : 48.0 kHz
Frame rate : 31.250 FPS (1536 SPF)
Compression mode : Lossy
Stream size : 274 MiB (15%)
Title : DUB | iTunes
Language : Russian
Service kind : Complete Main
Default : Yes
Forced : No
Audio #2
ID : 3
Format : AC-3
Format/Info : Audio Coding 3
Commercial name : Dolby Digital
Codec ID : A_AC3
Duration : 1 h 39 min
Bit rate mode : Constant
Bit rate : 384 kb/s
Channel(s) : 6 channels
Channel layout : L R C LFE Ls Rs
Sampling rate : 48.0 kHz
Frame rate : 31.250 FPS (1536 SPF)
Compression mode : Lossy
Stream size : 274 MiB (15%)
Title : English
Language : English
Service kind : Complete Main
Default : No
Forced : No
Text #1
ID : 4
Format : UTF-8
Codec ID : S_TEXT/UTF8
Codec ID/Info : UTF-8 Plain Text
Duration : 1 h 34 min
Bit rate : 50 b/s
Count of elements : 1101
Stream size : 34.7 KiB (0%)
Language : Russian
Default : No
Forced : No
Text #2
ID : 5
Format : UTF-8
Codec ID : S_TEXT/UTF8
Codec ID/Info : UTF-8 Plain Text
Duration : 1 h 38 min
Bit rate : 32 b/s
Count of elements : 891
Stream size : 23.6 KiB (0%)
Language : English
Default : No
Forced : No
Релиз от:
Автор релиза:
pb.wtf



Скачать Сигнал бедствия через торрент https://i116.fastpic.org/big/2021/1103/0d/6b2b744388ed8e9b0d4019236107eb0d.jpg Скачать, смотреть онлайн Сигнал бедствия бесплантно в хорошем качестве Описание: Уставшая от своей серой жизни Ана переносится в другую реальность, где встречает небольшую группу девушек, живущую на берегу ... 10 10 2
Info! Золотая раздача, скачанное не засчитывается.
Торрент: Зарегистрирован [2021-11-03 19:31] · скачан: 95 раз
Статус: √ проверено
Размер: 1.85 GB
Как cкачать? Как скачать Сигнал бедствия через торрент | UTorrent

28-11-2019 20:33  

Отключить всю рекламу на сайте

    Дорогой пользователь! Огромная просьба, поблагодарите релизера, оцените раздачу и оставьте свои комментарий, если Вы скачали Сигнал бедствия через торрент бесплатно!
    Комментировать посты могут только пользователи прошедшие не сложную регистрацию
    Показать сообщения:    

    Сигнал бедствия через торрент
    Скачать бесплатно Сигнал бедствия
    Сигнал бедствия скачать торрент
    Сигнал бедствия смотреть онлайн
    Cкачать фильм Сигнал бедствия бесплатно
    Сигнал бедствия скачать торрент в хорошем качестве
    Сигнал бедствия смотреть онлайн бесплатно в хорошем качестве


    Вы не можете начинать темы
    Вы не можете отвечать на сообщения
    Вы не можете редактировать свои сообщения
    Вы не можете удалять свои сообщения
    Вы не можете голосовать в опросах
    Вы не можете прикреплять файлы к сообщениям
    Вы можете скачивать файлы