Присоединяйтесь к нам в Telegram!, здесь всегда актуальный адрес сайта, оперативная поддержка и многое другое!!

>

5.9

iTunes

7.4

iTunes

9.4

1 сезон

1

7.4

2 сезон

7.2

iTunes

7.3

1 сезон

13

6.1

iTunes

8.3

GOG

30

ULTIMATE

pack

9.9

Лицензия

ВАЖНО

ИГРА 18+

pack

7.3

RePack

MK11

7.7

RePack

jed

7.8

RePack

fifa19

8.5

RePack

RDR2

RePack

NEED FOR SPEED™ PAYBACK

5 сезон

9 сезон

Бесстыжие 9 сезон

Все сериалы

все сериалы на PB.wtf

RePack

FAR CRY 5

Anonymous, доброй ночи, мы катастрофически не успеваем собрать деньги на оплату серверов, помогите нам пожалуйста 5,10,15р., для нас важна любая помощь . В качестве благодарности мы отключим Вам всю рекламу на сайте (укажите свой ник в строку Ваше имя)!

×
  
Magnet ссылка

На высоте мечты / In the Heights (Джон М. Чу) [2021, Мюзикл, мелодрама, драма, HDRip-AVC] DUB [КиноПоиск HD] pb.wtf

На высоте мечты через торрент pb.wtf

Размер: 2.95 GB | Добавлен: 22 д. назад | Торрент скачан:9 раз
Смотреть онлайн На высоте мечты | Скачать    Ребята, помогите собрать деньги на оплату серверов!!!

04-11-2021 18:29 На высоте мечты Скачать торрент  

На высоте мечты | In the Heights
Год выпуска: 2021
Страна: США
Студия: 5000 Broadway Productions, Likely Story, Scott Sanders Productions, Warner Bros.
Жанр: Мюзикл, мелодрама, драма
Продолжительность: 02:22:59
Перевод: Дублированный | КиноПоиск HD
Субтитры: Русские (Forced, 3x Full), английские (Full), французские(Full)

Режиссер: Джон М. Чу

rating

В ролях: Стефани Беатриз, Лин-Мануэль Миранда, Даша Поланко, Сьюзан Пурфар, Джимми Смитс, Энтони Рамос, Мелисса Баррера, Кори Хоукинс, Ариана Гринблатт, Марк Энтони, Дафна Рубин-Вега, Ольга Мередис, Лесли Грэйс

Описание: Герои фильма — жители района Вашингтон Хайтс, что на севере Манхэттена. Уснави — владелец винного погребка, который присматривает за пожилой соседкой-кубинкой, мечтает о красотке из местного салона красоты и надеется выиграть в лотерею, чтобы уехать к берегам родной Доминиканы. Тем временем, из колледжа на каникулы возвращается подруга его детства Нина, с сюрпризом для родителей.

Качество: HDRip-AVC
Формат: MKV

Видео: 1024x428 at 23.976 fps, x264@L4.1, ~2500 kbps, 0.238 bpp
Аудио: AC3, 48 kHz, 6 ch, ~448.00 kbps avg | русский | DUB
скриншот  скриншот  скриншот  скриншот  скриншот  

x264 [info]: frame I:1934 Avg QP:15.26 size: 88072
x264 [info]: frame P:49842 Avg QP:18.31 size: 26470
x264 [info]: frame B:153917 Avg QP:19.86 size: 7735
x264 [info]: consecutive B-frames: 2.9% 4.9% 10.4% 29.8% 15.6% 29.5% 3.5% 1.5% 1.2% 0.1% 0.4% 0.1% 0.3%

General
Unique ID : 258124911074801476726427494994814904657 (0xC2310CB02B42152B82815287054B2951)
Complete name : I:In.the.Heights.2021.D.HDRip-AVC.mkv
Format : Matroska
Format version : Version 4
File size : 2.95 GiB
Duration : 2 h 22 min
Overall bit rate : 2 950 kb/s
Encoded date : UTC 2021-11-04 08:23:34
Writing application : mkvmerge v62.0.0 ('Apollo') 64-bit
Writing library : libebml v1.4.2 + libmatroska v1.6.4
Cover : Yes
Attachments : Cover.jpg / Cover 2.jpg

Video
ID : 1
Format : AVC
Format/Info : Advanced Video Codec
Format profile : High@L4.1
Format settings : CABAC / 12 Ref Frames
Format settings, CABAC : Yes
Format settings, Reference : 12 frames
Codec ID : V_MPEG4/ISO/AVC
Duration : 2 h 22 min
Bit rate : 2 500 kb/s
Width : 1 024 pixels
Height : 428 pixels
Display aspect ratio : 2.40:1
Frame rate mode : Constant
Frame rate : 23.976 (24000/1001) FPS
Color space : YUV
Chroma subsampling : 4:2:0
Bit depth : 8 bits
Scan type : Progressive
Bits/(Pixel*Frame) : 0.238
Stream size : 2.50 GiB (85%)
Title : -=DoMiNo=-
Writing library : x264 core 164 r3065+55M 280faca t_mod_New [(8 & 10)-bit@all X86_64]
Encoding settings : cabac=1 / ref=12 / deblock=1:-3:-2 / analyse=0x3:0x133 / me=umh / subme=10 / psy=1 / fade_compensate=0.00 / psy_rd=1.03:0.05 / mixed_ref=1 / me_range=32 / chroma_me=1 / trellis=2 / 8x8dct=1 / cqm=0 / deadzone=21,11 / fast_pskip=0 / chroma_qp_offset=-3 / threads=24 / lookahead_threads=3 / sliced_threads=0 / nr=0 / decimate=0 / interlaced=0 / bluray_compat=0 / constrained_intra=0 / fgo=0 / bframes=12 / b_pyramid=2 / b_adapt=2 / b_bias=0 / direct=3 / weightb=1 / open_gop=0 / weightp=2 / keyint=240 / keyint_min=23 / scenecut=40 / intra_refresh=0 / rc_lookahead=60 / rc=2pass / mbtree=0 / bitrate=2500 / ratetol=1.0 / qcomp=0.70 / qpmin=0:0:0 / qpmax=69:69:69 / qpstep=4 / cplxblur=20.0 / qblur=0.5 / vbv_maxrate=50000 / vbv_bufsize=62500 / nal_hrd=none / filler=0 / ip_ratio=1.40 / pb_ratio=1.30 / aq=3:0.80 / aq-sensitivity=10.00 / aq-factor=1.00:1.00:1.00 / aq2=0 / aq3=0
Language : English
Default : Yes
Forced : No

Audio
ID : 2
Format : AC-3
Format/Info : Audio Coding 3
Commercial name : Dolby Digital
Codec ID : A_AC3
Duration : 2 h 22 min
Bit rate mode : Constant
Bit rate : 448 kb/s
Channel(s) : 6 channels
Channel layout : L R C LFE Ls Rs
Sampling rate : 48.0 kHz
Frame rate : 31.250 FPS (1536 SPF)
Compression mode : Lossy
Stream size : 458 MiB (15%)
Title : DUB
Language : Russian
Service kind : Complete Main
Default : Yes
Forced : Yes

Text #1
ID : 3
Format : UTF-8
Codec ID : S_TEXT/UTF8
Codec ID/Info : UTF-8 Plain Text
Duration : 2 h 22 min
Bit rate : 66 b/s
Count of elements : 1155
Stream size : 68.8 KiB (0%)
Title : Forced
Language : Russian
Default : Yes
Forced : No

Text #2
ID : 4
Format : UTF-8
Codec ID : S_TEXT/UTF8
Codec ID/Info : UTF-8 Plain Text
Duration : 2 h 22 min
Bit rate : 107 b/s
Count of elements : 2204
Stream size : 113 KiB (0%)
Title : Focs
Language : Russian
Default : No
Forced : No

Text #3
ID : 5
Format : UTF-8
Codec ID : S_TEXT/UTF8
Codec ID/Info : UTF-8 Plain Text
Duration : 2 h 22 min
Bit rate : 113 b/s
Count of elements : 2269
Stream size : 118 KiB (0%)
Language : Russian
Default : No
Forced : No

Text #4
ID : 6
Format : UTF-8
Codec ID : S_TEXT/UTF8
Codec ID/Info : UTF-8 Plain Text
Duration : 2 h 22 min
Bit rate : 108 b/s
Count of elements : 2240
Stream size : 113 KiB (0%)
Title : Ирина Парсонс
Language : Russian
Default : No
Forced : No

Text #5
ID : 7
Format : UTF-8
Codec ID : S_TEXT/UTF8
Codec ID/Info : UTF-8 Plain Text
Duration : 2 h 22 min
Bit rate : 76 b/s
Count of elements : 2213
Stream size : 79.5 KiB (0%)
Language : English
Default : No
Forced : No

Text #6
ID : 8
Format : UTF-8
Codec ID : S_TEXT/UTF8
Codec ID/Info : UTF-8 Plain Text
Duration : 2 h 22 min
Bit rate : 60 b/s
Count of elements : 2000
Stream size : 62.9 KiB (0%)
Language : French
Default : No
Forced : No

Menu
00:00:00.000 : en:Chapter 01
00:11:08.459 : en:Chapter 02
00:18:18.180 : en:Chapter 03
00:26:28.253 : en:Chapter 04
00:30:08.140 : en:Chapter 05
00:37:37.714 : en:Chapter 06
00:43:58.594 : en:Chapter 07
00:50:53.676 : en:Chapter 08
00:59:38.825 : en:Chapter 09
01:03:36.563 : en:Chapter 10
01:12:32.265 : en:Chapter 11
01:23:02.269 : en:Chapter 12
01:32:45.477 : en:Chapter 13
01:40:51.712 : en:Chapter 14
01:51:08.370 : en:Chapter 15
01:55:44.604 : en:Chapter 16
02:04:37.595 : en:Chapter 17
02:14:58.507 : en:Chapter 18
02:21:45.831 : en:Chapter 19

pb.wtf



Скачать На высоте мечты через торрент https://i1.imageban.ru/out/2021/09/07/3cad9f2e72ecf99d071280a754dde05e.jpg Скачать, смотреть онлайн На высоте мечты бесплантно в хорошем качестве Описание: Герои фильма — жители района Вашингтон Хайтс, что на севере Манхэттена. Уснави — владелец винного погребка, который присматривает ... 10 10 2
Торрент: Зарегистрирован [2021-11-04 18:29] · скачан: 9 раз
Статус: √ проверено
Размер: 2.95 GB
Как cкачать? Как скачать На высоте мечты через торрент | UTorrent

% Раздел Тема Автор DL S | L
Фильмы 2021 [DVDrip, WEB-DLRip, HDrip] (DUB, MVO) [ 2.18 GB ] На высоте мечты / In the Heights [2021 Мюзикл BDRip] DUB [КиноПоиск HD] bober100 Скачать
2 | 0
Фильмы 2021 [DVDrip, WEB-DLRip, HDrip] (DUB, MVO) [ 1.46 GB ] На высоте мечты / In the Heights [2021 Мюзикл BDRip] DUB [КиноПоиск HD] bober100 Скачать
1 | 0
Фильмы (Blu-ray, BD-Remux, HDDVD) [ 27.41 GB ] На высоте мечты / In the Heights [2021 Мюзикл BD Remux 1080p] DUB [КиноПоиск HD] bober100 Скачать
1 | 0
Фильмы [HD 720p, 1080p] (Хороший звук DUB, MVO) [ 5.62 GB ] На высоте мечты / In the Heights [2021 Мюзикл BDRip 720p] DUB [КиноПоиск HD] bober100 Скачать
2 | 0
Ultra HD (UHD: 2K, 4K, 8K) — видео сверхвысокой чёткости [ 78.01 GB ] На высоте мечты / In the Heights [2021 Мюзикл UHD BDRemux 2160p ] DUB [КиноПоиск HD] bober100 Скачать
1 | 0
Фильмы [HD 720p, 1080p] (Хороший звук DUB, MVO) [ 13.5 GB ] На высоте мечты / In the Heights [2021 Мюзикл BDRip 1080p] DUB [КиноПоиск HD] bober100 Скачать
1 | 0

28-11-2019 20:33  

Отключить всю рекламу на сайте

    Дорогой пользователь! Огромная просьба, поблагодарите релизера, оцените раздачу и оставьте свои комментарий, если Вы скачали На высоте мечты через торрент бесплатно!
    Комментировать посты могут только пользователи прошедшие не сложную регистрацию
    Показать сообщения:    

    На высоте мечты через торрент
    Скачать бесплатно На высоте мечты
    На высоте мечты скачать торрент
    На высоте мечты смотреть онлайн
    Cкачать фильм На высоте мечты бесплатно
    На высоте мечты скачать торрент в хорошем качестве
    На высоте мечты смотреть онлайн бесплатно в хорошем качестве


    Вы не можете начинать темы
    Вы не можете отвечать на сообщения
    Вы не можете редактировать свои сообщения
    Вы не можете удалять свои сообщения
    Вы не можете голосовать в опросах
    Вы не можете прикреплять файлы к сообщениям
    Вы можете скачивать файлы