Всегда рабочее зеркало без VPN и Proxy просто перед .vidak.icu напиши любое слово или цифру, Пример http://mrik.vidak.icu

MVO

MVO

1 сезон

1

1 сезон

iTunes

1 сезон

13

1 сезон

Deluxe

pack

Рекомендуем

Repack

30

ВАЖНО

RePack

MK11

RePack

jed

RePack

fifa19

RePack

RDR2

RePack

NEED FOR SPEED™ PAYBACK

Кинопоиск HD

6 сезон

 Острые козырьки 6 сезон

Все сериалы

все сериалы на PB.wtf

RePack

FAR CRY 5
  
Magnet ссылка

По ту сторону смерти / Сезон: 2 / Серии: 1-14 из 14 (Сергей Чекалов) [2021, Детектив, триллер, драма, WEBRip] pb.wtf

По ту сторону смерти через торрент pb.wtf

Размер: 9.71 GB | Добавлен: 8 мес. назад | Торрент скачан:276 раз
Смотреть онлайн По ту сторону смерти | Скачать    Ребята, помогите собрать деньги на оплату серверов!!!

04-11-2021 22:41 По ту сторону смерти Скачать торрент  

По ту сторону смерти 2 Год выпуска: 2021
Страна: Россия
Студия: Кинокомпания "ВайТ Медиа"
Жанр: Детектив, триллер, драма
Продолжительность: ~ 00:52:00
Перевод: Не требуется
Субтитры: отсутствуют

Режиссер: Сергей Чекалов

rating

В ролях: Сергей Гармаш, Светлана Ходченкова, Андрей Шеламов, Сергей Петров (II), Алевтина Тукан, Мария Смахтина, Дмитрий Никишкин, Михаил Коновалов, Валентина Муравская, Ольга Богомазова, Дмитрий Калистратов, Евгений Катаев, Игорь Киселёв (II), Евгений Низов, Алексей Старченко, Игорь Трафлялин, Екатерина Степанова, Сейдулла Молдаханов, Наталия Пахомова, Елена Лычагина, Сергей Карлов, Сослан Фидаров, Евгений Михайлусов, Екатерина Высоцкая, Маруся Пестунова, Татьяна Выдрина, Екатерина Тарасова (II), Никита Утесов

Описание: Сюжет начинается со странной истории, в которой пытается разобраться следователь СК Глеб Точилин перед выходом на пенсию. Он должен найти исчезнувшее из морга тело Алексея Быстрова, который попал под поезд, а на следующий день… встал и ушёл на своих двоих. В поисках «живого трупа» Точилину помогает сотрудница Института мозга Юлия Дёмина, которую пропавший спас из-под колёс электрички. В силу разницы в возрасте и мировоззрении Точилину и Дёминой трудно найти общий язык. Но разногласия уходят на второй план, когда детективам выпадает новый ребус и очередное мистическое преступление. Чтобы закрыть второе дело «Остров», напарники отправятся на морское побережье за призраками из тёмного прошлого Глеба.

Качество: WEBRip
Формат: AVI

Видео: XviD, 720x264, ~ 1650 Кбит/с, 0.345 bit/pixel, 25 Кадр/с
Аудио: 48.0 kHz, AC3 Dolby Digital, 2/0 (L,R) ch, ~ 192 kbps
скриншот  скриншот  скриншот  скриншот  

Общее
Полное имя : D:\Po.tu.storonu.smerti.S02.WEB-DLRip.25Kuzmich\Po.tu.storonu.smerti.e01.WEB-DLRip.25Kuzmich.avi
Формат : AVI
Формат/Информация : Audio Video Interleave
Размер файла : 681 Мбайт
Продолжительность : 51 м. 42 с.
Общий поток : 1 842 Кбит/сек
Программа кодирования : VirtualDubMod 1.5.10.3 | www.virtualdub-fr.org || (build 2550/release)
Библиотека кодирования : VirtualDubMod build 2550/release

Видео
Идентификатор : 0
Формат : MPEG-4 Visual
Профиль формата : Advanced [email protected]
Настройки формата : BVOP1
Параметр BVOP формата : 1
Параметр QPel формата : Нет
Параметр GMC формата : Без точки перехода
Параметр матрицы формата : Default (MPEG)
Идентификатор кодека : XVID
Идентификатор кодека/Подсказка : XviD
Продолжительность : 51 м. 42 с.
Битрейт : 1 640 Кбит/сек
Ширина : 720 пикселей
Высота : 264 пикселя
Соотношение сторон : 2,727
Частота кадров : 25,000 кадров/сек
Цветовое пространство : YUV
Субдискретизация насыщенности : 4:2:0
Битовая глубина : 8 бит
Тип развёртки : Прогрессивная
Метод сжатия : С потерями
Бит/(Пиксели*Кадры) : 0.345
Размер потока : 607 Мбайт (89%)
Библиотека кодирования : XviD 73

Аудио
Идентификатор : 1
Формат : AC-3
Формат/Информация : Audio Coding 3
Коммерческое название : Dolby Digital
Идентификатор кодека : 2000
Продолжительность : 51 м. 42 с.
Вид битрейта : Постоянный
Битрейт : 192 Кбит/сек
Каналы : 2 канала
Channel layout : L R
Частота : 48,0 КГц
Частота кадров : 31,250 кадров/сек (1536 SPF)
Метод сжатия : С потерями
Размер потока : 71,0 Мбайт (10%)
Выравнивание : Разделение по промежуткам
Продолжительность промежутка : 40 мс. (1,00 видеокадр)
Время предзагрузки промежутка : 500 мс.
Service kind : Complete Main

Внимание! Раздача ведётся путём добавления новых серий; при каждом добавлении создаётся новый торрент.
Чтобы начать докачку новой серии, пользователям необходимо сделать следующее:
1. Остановить скачивание;
2. Удалить старый торрент у себя из клиента (старые серии удалять не надо);
3. Скачать новый торрент и запустить его у себя в клиенте вместо старого, при этом указать клиенту путь в старую папку куда и должно происходить скачивание новых серий. Ваш клиент при этом должен произвести хеширование (проверку) старой папки и будет докачивать только те серии, которых у вас ещё нет. Старые серии при этом не удаляются, а продолжают раздаваться! Eсли вы уже удалили старые серии, то предотвратить повторную закачку старых серий можно, отжав галочку в соответствующих местах при запуске нового торрента.

pb.wtf



Скачать По ту сторону смерти через торрент https://b.radikal.ru/b04/2111/e0/f7e00829562b.jpg Скачать, смотреть онлайн По ту сторону смерти бесплантно в хорошем качестве Описание: Сюжет начинается со странной истории, в которой пытается разобраться следователь СК Глеб Точилин перед выходом на пенсию. Он ... 9.9 10 14
Торрент: Зарегистрирован [2021-11-12 04:59] · скачан: 276 раз
Статус: √ проверено
Размер: 9.71 GB
Как cкачать? Как скачать По ту сторону смерти через торрент | UTorrent

% Раздел Тема Автор DL S | L
Наши сериалы [ 23.29 GB ] По ту сторону смерти / Сезон: 2 / Серии: 1-14 из 14 [2021 WEBRip 1080p] bober100 Скачать
1 | 0
Наши сериалы [ 15.82 GB ] По ту сторону смерти / Сезон: 2 / Серии: 1-14 из 14 [2021 WEBRip 720p] bober100 Скачать
2 | 1


Последний раз редактировалось: bober100 (2021-11-10 17:19), всего редактировалось 2 раз(а)

28-11-2019 20:33  

Отключить вcю реклaмy на сайте

    Дорогой пользователь! Огромная просьба, поблагодарите релизера, оцените раздачу и оставьте свои комментарий, если Вы скачали По ту сторону смерти через торрент бесплатно!
    Комментировать посты могут только пользователи прошедшие не сложную регистрацию
    Показать сообщения:    

    По ту сторону смерти через торрент
    Скачать бесплатно По ту сторону смерти
    По ту сторону смерти скачать торрент
    По ту сторону смерти смотреть онлайн
    Cкачать фильм По ту сторону смерти бесплатно
    По ту сторону смерти скачать торрент в хорошем качестве
    По ту сторону смерти смотреть онлайн бесплатно в хорошем качестве


    Вы не можете начинать темы
    Вы не можете отвечать на сообщения
    Вы не можете редактировать свои сообщения
    Вы не можете удалять свои сообщения
    Вы не можете голосовать в опросах
    Вы не можете прикреплять файлы к сообщениям
    Вы можете скачивать файлы