Присоединяйтесь к нам в Telegram!, здесь всегда актуальный адрес сайта, оперативная поддержка и многое другое!!

>

5.9

iTunes

7.4

iTunes

9.4

1 сезон

1

7.4

2 сезон

7.2

iTunes

7.3

1 сезон

13

6.1

iTunes

8.3

GOG

30

ULTIMATE

pack

9.9

Лицензия

ВАЖНО

ИГРА 18+

pack

7.3

RePack

MK11

7.7

RePack

jed

7.8

RePack

fifa19

8.5

RePack

RDR2

RePack

NEED FOR SPEED™ PAYBACK

5 сезон

9 сезон

Бесстыжие 9 сезон

Все сериалы

все сериалы на PB.wtf

RePack

FAR CRY 5

Anonymous, доброй ночи, мы катастрофически не успеваем собрать деньги на оплату серверов, помогите нам пожалуйста 5,10,15р., для нас важна любая помощь . В качестве благодарности мы отключим Вам всю рекламу на сайте (укажите свой ник в строку Ваше имя)!

×
  
Magnet ссылка

Чиновница / Сезон: 1 / Серии: 1-5 из 8 (Оксана Карас) [2021, Драма, детектив, мелодрама, WEBRip 720p] pb.wtf

Чиновница через торрент pb.wtf

Раздают: 2 [ 0 KB/s ]
Размер: 7.02 GB | Добавлен: 6 д. назад | Торрент скачан:2 раза
Смотреть онлайн Чиновница | Скачать    Ребята, помогите собрать деньги на оплату серверов!!!

04-11-2021 23:49 Чиновница Скачать торрент  

Чиновница
Год выпуска: 2021
Страна: Россия
Студия: KIT Film Studio
Жанр: Драма, детектив, мелодрама
Продолжительность: ~ 00:45:00 серия
Перевод: Не требуется
Субтитры: отсутствуют

Режиссер: Оксана Карас



В ролях: Виктория Толстоганова, Максим Виторган, Алексей Агранович, Полина Кутепова, Артём Быстров, Яна Гладких, Лаура Пицхелаури, Сергей Волков (III), Камиль Тукаев, Семён Серзин, Виталий Коваленко, Варвара Владимирова, Кирилл Пластунов, Дмитрий Бодягин, Владимир Лысенко, Мария Радзивилл, Андрей Некрасов (II), Рафаэль Хисматулин, Наталья Зыбенкова, Саша Орлова, Илья Дерябин, Анна Гарагуля, Дмитрий Коткин, Тимур Ворохов, Мария Клешнина, Матвей Воронин, Ян Решетников, Сергей Гамов, Ангелина Дебор, Рафаил Эйвазов, Маргарита Королькова, Анжелика Сутырина, Лев Летов, Кристина Ким, Елена Крестьянцева, Ольга Родионова (II), Максим Матузный

Описание: Жизнь чиновницы регионального Минздрава Арины Алферовой весьма благополучна: хорошая квартира в центре города, приличная иномарка, утренняя укладка, шопинг-поездки в Москву, украшения, дорогие туфли. В конце концов начальник финансово-экономического отдела может позволить себе кое-что. А иногда даже больше, чем кое-что. Особенно, если твой любовник ведет бизнес с крупнейшим фармацевтическим предприятием региона. Что взамен? Пару подписей поставить на договорах. Увлекшись личной жизнью, она не замечает, чего стоит каждая ее подпись. Однажды горькая расплата подберется к ней слишком близко — от поддельных таблеток умирает родной человек. Так чиновница решает сама встроиться в коррумпированную цепочку, чтобы добраться до самого верха — до министра — и потопить всех.

Качество: WEBRip 720p
Формат: MKV

Видео: MPEG-4 AVC, 1280x720, ~ 3840 Кбит/с, 0.167 bit/pixel, 25 Кадр/с
Аудио: 48.0 kHz, AC3 Dolby Digital, 2/0 (L,R) ch, ~ 192 kbps
скриншот  скриншот  скриншот  скриншот  

Общее
Уникальный идентификатор : 315746534238953732669413189312044023993 (0xED8A920D1F49464628BEAA74043340B9)
Полное имя : D:\Chinovnica.2021.WEB-DL.720p\Chinovnica.E01.2021.WEB-DL.720p.mkv
Формат : Matroska
Версия формата : Version 4
Размер файла : 1,24 Гбайт
Продолжительность : 44 м. 51 с.
Режим общего битрейта : Постоянный
Общий поток : 3 942 Кбит/сек
Название фильма : Chinovnica.E01.2021.WEB-DL.720p
Дата кодирования : UTC 2021-11-04 23:34:34
Программа кодирования : mkvmerge v62.0.0 ('Apollo') 64-bit
Библиотека кодирования : libebml v1.4.2 + libmatroska v1.6.4
Attachments : poster.jpg

Видео
Идентификатор : 1
Формат : AVC
Формат/Информация : Advanced Video Codec
Профиль формата : Baseline@L3.1
Настройки формата : 2 Ref Frames
Параметр CABAC формата : Нет
Параметр RefFrames формата : 2 кадра
Параметр GOP формата : M=1, N=25
Идентификатор кодека : V_MPEG4/ISO/AVC
Продолжительность : 44 м. 51 с.
Вид битрейта : Постоянный
Битрейт : 3 840 Кбит/сек
Ширина : 1 280 пикселей
Высота : 720 пикселей
Соотношение сторон : 16:9
Режим частоты кадров : Постоянный
Частота кадров : 25,000 кадров/сек
Цветовое пространство : YUV
Субдискретизация насыщенности : 4:2:0
Битовая глубина : 8 бит
Тип развёртки : Прогрессивная
Бит/(Пиксели*Кадры) : 0.167
Размер потока : 1,17 Гбайт (95%)
Default : Да
Forced : Нет

Аудио
Идентификатор : 2
Формат : AC-3
Формат/Информация : Audio Coding 3
Коммерческое название : Dolby Digital
Идентификатор кодека : A_AC3
Продолжительность : 44 м. 51 с.
Вид битрейта : Постоянный
Битрейт : 192 Кбит/сек
Каналы : 2 канала
Channel layout : L R
Частота : 48,0 КГц
Частота кадров : 31,250 кадров/сек (1536 SPF)
Метод сжатия : С потерями
Размер потока : 61,6 Мбайт (5%)
Service kind : Complete Main
Default : Да
Forced : Нет

Внимание! Раздача ведётся путём добавления новых серий; при каждом добавлении создаётся новый торрент.
Чтобы начать докачку новой серии, пользователям необходимо сделать следующее:
1. Остановить скачивание;
2. Удалить старый торрент у себя из клиента (старые серии удалять не надо);
3. Скачать новый торрент и запустить его у себя в клиенте вместо старого, при этом указать клиенту путь в старую папку куда и должно происходить скачивание новых серий. Ваш клиент при этом должен произвести хеширование (проверку) старой папки и будет докачивать только те серии, которых у вас ещё нет. Старые серии при этом не удаляются, а продолжают раздаваться! Eсли вы уже удалили старые серии, то предотвратить повторную закачку старых серий можно, отжав галочку в соответствующих местах при запуске нового торрента.

pb.wtf



Скачать Чиновница через торрент https://a.radikal.ru/a24/2111/08/062fae0e45c9.jpg Скачать, смотреть онлайн Чиновница бесплантно в хорошем качестве Описание: Жизнь чиновницы регионального Минздрава Арины Алферовой весьма благополучна: хорошая квартира в центре города, приличная ... 8.4 10 7
Торрент: Зарегистрирован [2021-11-25 04:00] · скачан: 2 раз
Статус: √ проверено
Размер: 7.02 GB
Как cкачать? Как скачать Чиновница через торрент | UTorrent

% Раздел Тема Автор DL S | L
Наши сериалы [ 11.02 GB ] Чиновница / Сезон: 1 / Серии: 1-5 из 8 [2021 WEBRip 1080p] bober100 Скачать
2 | 0

28-11-2019 20:33  

Отключить всю рекламу на сайте

    Дорогой пользователь! Огромная просьба, поблагодарите релизера, оцените раздачу и оставьте свои комментарий, если Вы скачали Чиновница через торрент бесплатно!
    Комментировать посты могут только пользователи прошедшие не сложную регистрацию
    Показать сообщения:    

    Чиновница через торрент
    Скачать бесплатно Чиновница
    Чиновница скачать торрент
    Чиновница смотреть онлайн
    Cкачать фильм Чиновница бесплатно
    Чиновница скачать торрент в хорошем качестве
    Чиновница смотреть онлайн бесплатно в хорошем качестве


    Вы не можете начинать темы
    Вы не можете отвечать на сообщения
    Вы не можете редактировать свои сообщения
    Вы не можете удалять свои сообщения
    Вы не можете голосовать в опросах
    Вы не можете прикреплять файлы к сообщениям
    Вы можете скачивать файлы