Присоединяйтесь к нам в Telegram!, здесь всегда актуальный адрес сайта, оперативная поддержка и многое другое!!

>

5.9

iTunes

7.4

iTunes

9.4

1 сезон

1

7.4

2 сезон

7.2

iTunes

7.3

1 сезон

13

6.1

iTunes

8.3

GOG

30

ULTIMATE

pack

9.9

Лицензия

ВАЖНО

ИГРА 18+

pack

7.3

RePack

MK11

7.7

RePack

jed

7.8

RePack

fifa19

8.5

RePack

RDR2

RePack

NEED FOR SPEED™ PAYBACK

5 сезон

9 сезон

Бесстыжие 9 сезон

Все сериалы

все сериалы на PB.wtf

RePack

FAR CRY 5

Anonymous, доброе утро, мы катастрофически не успеваем собрать деньги на оплату серверов, помогите нам пожалуйста 5,10,15р., для нас важна любая помощь . В качестве благодарности мы отключим Вам всю рекламу на сайте (укажите свой ник в строку Ваше имя)!

×
  
Magnet ссылка

Финч / Finch (Мигель Сапочник) [2021, Фантастика, драма, WEB-DLRip-AVC] DUB [Невафильм / Apple TV+] pb.wtf

Финч через торрент pb.wtf

Раздают: 3 [ 0 KB/s ]
Размер: 2.22 GB | Добавлен: 26 д. назад | Торрент скачан:63 раза
Смотреть онлайн Финч | Скачать    Ребята, помогите собрать деньги на оплату серверов!!!

05-11-2021 15:53 Финч Скачать торрент  

Финч | Finch
Год выпуска: 2021
Страна: Великобритания, США
Студия: Amblin Partners, Dutch Angle, ImageMovers, Misher Films, Walden Media
Жанр: Фантастика, драма
Продолжительность: 01:55:39
Перевод: Дублированный | Невафильм по заказу Apple TV+
Субтитры: Русские (Forced, Full, SDH), английские

Режиссер: Мигель Сапочник

rating

В ролях: Том Хэнкс, Калеб Лэндри Джонс, Самира Уайли, Лора Хэрриер, Скит Ульрих

Описание: После вспышки на солнце произошла глобальная катастрофа и большинство людей на Земле погибло. Изобретатель Финч выжил в подземном бункере. Будучи смертельно больным, он создаёт андроида Джеффа для того, чтобы он составил ему и его собаке Гудиир компанию. Трио героев отправляется в путешествие по стране.

Качество: WEB-DLRip-AVC
Формат: MKV

Видео: 1024x428 at 23.976 fps, x264@L4.1, ~2300 kbps
Аудио: AC3, 48 kHz, 6 ch, 448 kbps

x264 [info]: frame I:1265 Avg QP:14.06 size: 79773
x264 [info]: frame P:38968 Avg QP:16.97 size: 25470
x264 [info]: frame B:126151 Avg QP:18.64 size: 7149

General
Unique ID : 31839681229403636027599503926650923373 (0x17F4197C1AEF3CA70106AF971586E96D)
Complete name : K:Finch.2021.ATVP.WEB-DLRip-AVC.mkv
Format : Matroska
Format version : Version 4
File size : 2.22 GiB
Duration : 1 h 55 min
Overall bit rate : 2 751 kb/s
Encoded date : UTC 2021-11-05 10:04:35
Writing application : mkvmerge v62.0.0 ('Apollo') 64-bit
Writing library : libebml v1.4.2 + libmatroska v1.6.4
Cover : Yes
Attachments : cover.jpg / cover 2.jpg

Video
ID : 1
Format : AVC
Format/Info : Advanced Video Codec
Format profile : High@L4.1
Format settings : CABAC / 12 Ref Frames
Format settings, CABAC : Yes
Format settings, Reference : 12 frames
Codec ID : V_MPEG4/ISO/AVC
Duration : 1 h 55 min
Bit rate : 2 300 kb/s
Width : 1 024 pixels
Height : 428 pixels
Display aspect ratio : 2.40:1
Frame rate mode : Constant
Frame rate : 23.976 (24000/1001) FPS
Color space : YUV
Chroma subsampling : 4:2:0
Bit depth : 8 bits
Scan type : Progressive
Bits/(Pixel*Frame) : 0.219
Stream size : 1.86 GiB (84%)
Title : -=DoMiNo=-
Writing library : x264 core 164 r3075+55M 97d28bb t_mod_New [(8 & 10)-bit@all X86_64]
Encoding settings : cabac=1 / ref=12 / deblock=1:-3:-2 / analyse=0x3:0x133 / me=umh / subme=10 / psy=1 / fade_compensate=0.00 / psy_rd=1.00:0.20 / mixed_ref=1 / me_range=32 / chroma_me=1 / trellis=2 / 8x8dct=1 / cqm=0 / deadzone=21,11 / fast_pskip=0 / chroma_qp_offset=-3 / threads=24 / lookahead_threads=3 / sliced_threads=0 / nr=0 / decimate=0 / interlaced=0 / bluray_compat=0 / constrained_intra=0 / fgo=0 / bframes=10 / b_pyramid=2 / b_adapt=2 / b_bias=0 / direct=3 / weightb=1 / open_gop=0 / weightp=2 / keyint=250 / keyint_min=23 / scenecut=40 / intra_refresh=0 / rc_lookahead=60 / rc=2pass / mbtree=0 / bitrate=2300 / ratetol=1.0 / qcomp=0.60 / qpmin=0:0:0 / qpmax=69:69:69 / qpstep=4 / cplxblur=20.0 / qblur=0.5 / vbv_maxrate=50000 / vbv_bufsize=62500 / nal_hrd=none / filler=0 / ip_ratio=1.40 / pb_ratio=1.30 / aq=2:0.90 / aq-sensitivity=10.00 / aq-factor=1.00:1.00:1.00 / aq2=0 / aq3=0
Language : English
Default : Yes
Forced : No
Color range : Limited
Color primaries : BT.709
Transfer characteristics : BT.709
Matrix coefficients : BT.709

Audio
ID : 2
Format : AC-3
Format/Info : Audio Coding 3
Commercial name : Dolby Digital
Codec ID : A_AC3
Duration : 1 h 55 min
Bit rate mode : Constant
Bit rate : 448 kb/s
Channel(s) : 6 channels
Channel layout : L R C LFE Ls Rs
Sampling rate : 48.0 kHz
Frame rate : 31.250 FPS (1536 SPF)
Compression mode : Lossy
Stream size : 371 MiB (16%)
Title : DUB
Language : Russian
Service kind : Complete Main
Default : Yes
Forced : Yes

Text #1
ID : 3
Format : UTF-8
Codec ID : S_TEXT/UTF8
Codec ID/Info : UTF-8 Plain Text
Duration : 1 h 49 min
Bit rate : 2 b/s
Count of elements : 59
Stream size : 2.16 KiB (0%)
Title : Forced
Language : Russian
Default : Yes
Forced : No

Text #2
ID : 4
Format : UTF-8
Codec ID : S_TEXT/UTF8
Codec ID/Info : UTF-8 Plain Text
Duration : 1 h 53 min
Bit rate : 54 b/s
Count of elements : 1044
Stream size : 45.8 KiB (0%)
Title : Full
Language : Russian
Default : No
Forced : No

Text #3
ID : 5
Format : UTF-8
Codec ID : S_TEXT/UTF8
Codec ID/Info : UTF-8 Plain Text
Duration : 1 h 48 min
Bit rate : 67 b/s
Count of elements : 1267
Stream size : 53.5 KiB (0%)
Title : SDH
Language : Russian
Default : No
Forced : No

Text #4
ID : 6
Format : UTF-8
Codec ID : S_TEXT/UTF8
Codec ID/Info : UTF-8 Plain Text
Duration : 1 h 53 min
Bit rate : 52 b/s
Count of elements : 1035
Stream size : 44.0 KiB (0%)
Title : Full
Language : Ukrainian
Default : No
Forced : No

Text #5
ID : 7
Format : UTF-8
Codec ID : S_TEXT/UTF8
Codec ID/Info : UTF-8 Plain Text
Bit rate : 0 b/s
Count of elements : 0
Stream size : 0.00 Byte (0%)
Title : Forced
Language : English
Default : No
Forced : No

Text #6
ID : 8
Format : UTF-8
Codec ID : S_TEXT/UTF8
Codec ID/Info : UTF-8 Plain Text
Duration : 1 h 45 min
Bit rate : 35 b/s
Count of elements : 986
Stream size : 27.5 KiB (0%)
Title : Full
Language : English
Default : No
Forced : No

Text #7
ID : 9
Format : UTF-8
Codec ID : S_TEXT/UTF8
Codec ID/Info : UTF-8 Plain Text
Duration : 1 h 47 min
Bit rate : 41 b/s
Count of elements : 1210
Stream size : 32.6 KiB (0%)
Title : SDH
Language : English
Default : No
Forced : No

pb.wtf



Скачать Финч через торрент https://i7.imageban.ru/out/2021/10/30/3ac4d7b0d1eb8d694a95df121d7b6f6b.jpg Скачать, смотреть онлайн Финч бесплантно в хорошем качестве Описание: После вспышки на солнце произошла глобальная катастрофа и большинство людей на Земле погибло. Изобретатель Финч выжил в подземном ... 9.9 10 7
Торрент: Зарегистрирован [2021-11-05 15:53] · скачан: 63 раз
Статус: √ проверено
Размер: 2.22 GB
Как cкачать? Как скачать Финч через торрент | UTorrent

% Раздел Тема Автор DL S | L
Ultra HD (UHD: 2K, 4K, 8K) — видео сверхвысокой чёткости [ 18.43 GB ] Финч / Finch [2021 HEVC SDR WEB-DL 2160p] Dub [Apple TV sokol_ok Скачать
188 | 7
Фильмы (WEB-DL 720p, 1080p) [ 6.56 GB ] Финч / Finch [2021 WEB-DL-HEVC 1080p] DUB [Невафильм / Apple TV bober100 Скачать
53 | 0
Фильмы 2021 [DVDrip, WEB-DLRip, HDrip] (DUB, MVO) [ 2.18 GB ] Финч / Finch [2021 WEB-DLRip] - [Невафильм / Apple TV Twi7ter Скачать
225 | 0
Фильмы (WEB-DL 720p, 1080p) [ 2.89 GB ] Финч / Finch [2021 WEB-DL 720p] DUB [Невафильм / Apple TV bober100 Скачать
891 | 21
Фильмы (WEB-DL 720p, 1080p) [ 9.99 GB ] Финч / Finch [2021 WEB-DL 1080p] DUB [Невафильм / Apple TV bober100 Скачать
36 | 0
Фильмы 2021 [DVDrip, WEB-DLRip, HDrip] (DUB, MVO) [ 1.46 GB ] Финч / Finch [2021 WEB-DLRip] - [Невафильм / Apple TV Twi7ter Скачать
1014 | 44
Фильмы 2021 [DVDrip, WEB-DLRip, HDrip] (DUB, MVO) [ 2.17 GB ] Финч / Finch [2021 WEB-DLRip-AVC] Dub [Apple TV sokol_ok Скачать
111 | 2

28-11-2019 20:33  

Отключить всю рекламу на сайте

    Дорогой пользователь! Огромная просьба, поблагодарите релизера, оцените раздачу и оставьте свои комментарий, если Вы скачали Финч через торрент бесплатно!
    Комментировать посты могут только пользователи прошедшие не сложную регистрацию
    Показать сообщения:    

    Финч через торрент
    Скачать бесплатно Финч
    Финч скачать торрент
    Финч смотреть онлайн
    Cкачать фильм Финч бесплатно
    Финч скачать торрент в хорошем качестве
    Финч смотреть онлайн бесплатно в хорошем качестве


    Вы не можете начинать темы
    Вы не можете отвечать на сообщения
    Вы не можете редактировать свои сообщения
    Вы не можете удалять свои сообщения
    Вы не можете голосовать в опросах
    Вы не можете прикреплять файлы к сообщениям
    Вы можете скачивать файлы