Присоединяйтесь к нам в Telegram!, здесь всегда актуальный адрес сайта, оперативная поддержка и многое другое!!

>

5.9

iTunes

7.4

iTunes

9.4

1 сезон

1

7.4

2 сезон

7.2

iTunes

7.3

1 сезон

13

6.1

iTunes

8.3

GOG

30

ULTIMATE

pack

9.9

Лицензия

ВАЖНО

ИГРА 18+

pack

7.3

RePack

MK11

7.7

RePack

jed

7.8

RePack

fifa19

8.5

RePack

RDR2

RePack

NEED FOR SPEED™ PAYBACK

5 сезон

9 сезон

Бесстыжие 9 сезон

Все сериалы

все сериалы на PB.wtf

RePack

FAR CRY 5

Anonymous, доброе утро, мы катастрофически не успеваем собрать деньги на оплату серверов, помогите нам пожалуйста 5,10,15р., для нас важна любая помощь . В качестве благодарности мы отключим Вам всю рекламу на сайте (укажите свой ник в строку Ваше имя)!

×
  
Magnet ссылка

Кошачьи миры Луиса Уэйна / The Electrical Life of Louis Wain (Уилл Шарп) [2021, биография, история, драма, WEB-DLRip-AVC] [Локализованный видеоряд] Dub [КиноПоиск HD] pb.wtf

Кошачьи миры Луиса Уэйна через торрент pb.wtf

Раздают: 47 [ 6 KB/s ] Качают: 1 [ 0 KB/s ]
Размер: 1.38 GB | Добавлен: 23 д. назад | Торрент скачан:62 раза
Смотреть онлайн Кошачьи миры Луиса Уэйна | Скачать    Ребята, помогите собрать деньги на оплату серверов!!!

06-11-2021 09:28 Кошачьи миры Луиса Уэйна Скачать торрент  

Кошачьи миры Луиса Уэйна
The Electrical Life of Louis Wain

Страна: Великобритания
Жанр: биография, история, драма
Год выпуска: 2021
Продолжительность: 01:46:42

Перевод: Профессиональный (полное дублирование) [Мосфильм-Мастер / КиноПоиск HD]
Субтитры: русские (полные)
Оригинальная аудиодорожка: нет

Режиссер: Уилл Шарп / Will Sharpe

В ролях: Бенедикт Камбербэтч, Клэр Фой, Джэми Деметриу, Норбери Экланд, Дороти Эткинсон, Ричард Айоади, Эмбер Виктория Брэй, Азим Чодри, Кристал Кларк, Софи Ди Мартино

Описание: Картины эксцентричного аристократа Луиса Уэйна обладают одной общей чертой — он пишет исключительно антропоморфных котов. Благодаря любви своей жены Эмили, Луис навсегда меняет взгляд людей на жизнь и на кошек. Но с каждой новой картиной причудливые миры Луиса начинают всё сильнее заменять ему реальность.



Релиз:

Автор рипа: stalkerok

Сэмпл

Качество видео: WEB-DLRip-AVC | Локализованный видеоряд | Исходник: The.Electrical.Life.of.Louis.Wain.2021.1080p.WEB-DL.Rus.Eng_TeamHD
Формат видео: MKV
Видео кодек: AVC
Аудио кодек: AC3
Видео: AVC, 1398 Кбит/сек, 864x648 (4:3), 25 кадр/сек
Аудио: AC3, 448 Кбит/сек, 48 КГц, 5.1 - русский
---[Information] [06.11.2021 12:02:23] x264 [info]: frame I:1018 Avg QP:17.01 size: 60322
---[Information] [06.11.2021 12:02:23] x264 [info]: frame P:37633 Avg QP:18.56 size: 15077
---[Information] [06.11.2021 12:02:23] x264 [info]: frame B:121410 Avg QP:20.83 size: 4040
---[Information] [06.11.2021 12:02:23] x264 [info]: consecutive B-frames: 1.6% 2.4% 5.9% 52.2% 9.5% 19.1% 4.2% 3.6% 0.9% 0.1% 0.2% 0.1% 0.0% 0.0% 0.0%

General
Unique ID : 276127775352603346730557161970765334574 (0xCFBC466D241F40F34D56386D783B082E)
Complete name : J:\The Electrical Life of Louis Wain\The.Electrical.Life.of.Louis.Wain.2021.WEB-DLRip.x264.Rus.stalkerok.New-Team.mkv
Format : Matroska
Format version : Version 4 / Version 2
File size : 1.38 GiB
Duration : 1 h 46 min
Overall bit rate : 1 848 kb/s
Movie name : Кошачьи миры Луиса Уэйна (2021) | Rip by stalkerok
Encoded date : UTC 2021-11-06 09:04:01
Writing application : mkvmerge v62.0.0 ('Apollo') 64-bit
Writing library : libebml v1.4.2 + libmatroska v1.6.4

Video
ID : 1
Format : AVC
Format/Info : Advanced Video Codec
Format profile : High@L4.1
Format settings, CABAC : Yes
Format settings, ReFrames : 12 frames
Codec ID : V_MPEG4/ISO/AVC
Duration : 1 h 46 min
Bit rate : 1 399 kb/s
Width : 864 pixels
Height : 648 pixels
Display aspect ratio : 4:3
Frame rate mode : Constant
Frame rate : 25.000 FPS
Color space : YUV
Chroma subsampling : 4:2:0
Bit depth : 8 bits
Scan type : Progressive
Bits/(Pixel*Frame) : 0.100
Stream size : 1.04 GiB (76%)
Writing library : x264 core 164 r3065+55M 280faca t_mod_New [(8 & 10)-bit@all X86_64]
Encoding settings : cabac=1 / ref=12 / deblock=1:-3:-2 / analyse=0x3:0x133 / me=umh / subme=10 / psy=1 / fade_compensate=0.00 / psy_rd=1.00:0.00 / mixed_ref=1 / me_range=32 / chroma_me=1 / trellis=2 / 8x8dct=1 / cqm=0 / deadzone=21,11 / fast_pskip=0 / chroma_qp_offset=-2 / threads=12 / lookahead_threads=3 / sliced_threads=0 / nr=0 / decimate=1 / interlaced=0 / bluray_compat=0 / constrained_intra=0 / fgo=0 / bframes=14 / b_pyramid=2 / b_adapt=2 / b_bias=0 / direct=3 / weightb=1 / open_gop=0 / weightp=2 / keyint=250 / keyint_min=25 / scenecut=40 / intra_refresh=0 / rc_lookahead=60 / rc=crf / mbtree=0 / crf=20.3000 / qcomp=0.65 / qpmin=0:0:0 / qpmax=69:69:69 / qpstep=4 / vbv_maxrate=50000 / vbv_bufsize=62500 / crf_max=0.0 / nal_hrd=none / filler=0 / ip_ratio=1.40 / pb_ratio=1.30 / aq=3:0.90 / aq-sensitivity=10.00 / aq-factor=1.00:1.00:1.00 / aq2=0 / aq3=0
Default : Yes
Forced : No

Audio
ID : 2
Format : AC-3
Format/Info : Audio Coding 3
Mode extension : CM (complete main)
Format settings, Endianness : Big
Codec ID : A_AC3
Duration : 1 h 46 min
Bit rate mode : Constant
Bit rate : 448 kb/s
Channel(s) : 6 channels
Channel positions : Front: L C R, Side: L R, LFE
Sampling rate : 48.0 kHz
Frame rate : 31.250 FPS (1536 spf)
Compression mode : Lossy
Stream size : 342 MiB (24%)
Language : Russian
Default : Yes
Forced : No

Text
ID : 3
Format : UTF-8
Codec ID : S_TEXT/UTF8
Codec ID/Info : UTF-8 Plain Text
Duration : 1 h 38 min
Bit rate : 112 b/s
Count of elements : 1242
Stream size : 81.5 KiB (0%)
Language : Russian
Default : No
Forced : No
pb.wtf



Скачать Кошачьи миры Луиса Уэйна через торрент http://i6.imageban.ru/out/2017/09/18/2ff75c0c358795c5946784cc1680714d.png Скачать, смотреть онлайн Кошачьи миры Луиса Уэйна бесплантно в хорошем качестве Описание: Картины эксцентричного аристократа Луиса Уэйна обладают одной общей чертой — он пишет исключительно антропоморфных котов. ... 10 10 5
Info! Золотая раздача, скачанное не засчитывается.
Торрент: Зарегистрирован [2021-11-06 09:28] · скачан: 62 раз
Статус: √ проверено
Размер: 1.38 GB
Как cкачать? Как скачать Кошачьи миры Луиса Уэйна через торрент | UTorrent

% Раздел Тема Автор DL S | L
Фильмы (WEB-DL 720p, 1080p) [ 5.11 GB ] Кошачьи миры Луиса Уэйна / The Electrical Life of Louis Wain [2021 Биография история WEB-DL 1080p ] [Мосфильм-Мастер] bober100 Скачать
11 | 0
Фильмы 2021 [DVDrip, WEB-DLRip, HDrip] (DUB, MVO) [ 1.46 GB ] Кошачьи миры Луиса Уэйна / The Electrical Life of Louis Wain [2021 Биография история WEB-DLRip ] DUB [Мосфильм-Мастер] bober100 Скачать
8 | 0
Фильмы 2021 [DVDrip, WEB-DLRip, HDrip] (DUB, MVO) [ 1.47 GB ] Кошачьи миры Луиса Уэйна / The Electrical Life of Louis Wain [2021 биография история WEB-DLRip] - [КиноПоиск HD] Twi7ter Скачать
38 | 1

28-11-2019 20:33  

Отключить всю рекламу на сайте

    Дорогой пользователь! Огромная просьба, поблагодарите релизера, оцените раздачу и оставьте свои комментарий, если Вы скачали Кошачьи миры Луиса Уэйна через торрент бесплатно!
    Комментировать посты могут только пользователи прошедшие не сложную регистрацию
    Показать сообщения:    

    Кошачьи миры Луиса Уэйна через торрент
    Скачать бесплатно Кошачьи миры Луиса Уэйна
    Кошачьи миры Луиса Уэйна скачать торрент
    Кошачьи миры Луиса Уэйна смотреть онлайн
    Cкачать фильм Кошачьи миры Луиса Уэйна бесплатно
    Кошачьи миры Луиса Уэйна скачать торрент в хорошем качестве
    Кошачьи миры Луиса Уэйна смотреть онлайн бесплатно в хорошем качестве


    Вы не можете начинать темы
    Вы не можете отвечать на сообщения
    Вы не можете редактировать свои сообщения
    Вы не можете удалять свои сообщения
    Вы не можете голосовать в опросах
    Вы не можете прикреплять файлы к сообщениям
    Вы можете скачивать файлы