Присоединяйтесь к нам в Telegram!, здесь всегда актуальный адрес сайта, оперативная поддержка и многое другое!!

>

5.9

iTunes

7.4

iTunes

9.4

1 сезон

1

7.4

2 сезон

7.2

iTunes

7.3

1 сезон

13

6.1

iTunes

8.3

GOG

30

ULTIMATE

pack

9.9

Лицензия

ВАЖНО

ИГРА 18+

pack

7.3

RePack

MK11

7.7

RePack

jed

7.8

RePack

fifa19

8.5

RePack

RDR2

RePack

NEED FOR SPEED™ PAYBACK

5 сезон

9 сезон

Бесстыжие 9 сезон

Все сериалы

все сериалы на PB.wtf

RePack

FAR CRY 5

Anonymous, доброй ночи, мы катастрофически не успеваем собрать деньги на оплату серверов, помогите нам пожалуйста 5,10,15р., для нас важна любая помощь . В качестве благодарности мы отключим Вам всю рекламу на сайте (укажите свой ник в строку Ваше имя)!

×
  
Magnet ссылка

Неуловимый аромат любви / Love Hard (Эрнан Хименес) [2021, Мелодрама, комедия, WEB-DLRip-AVC] DUB [Netflix] от ExKinoRay pb.wtf

Неуловимый аромат любви через торрент pb.wtf

Раздают: 3 [ 0 KB/s ]
Размер: 1.97 GB | Добавлен: 20 д. назад | Торрент скачан:80 раз
Смотреть онлайн Неуловимый аромат любви | Скачать    Ребята, помогите собрать деньги на оплату серверов!!!

06-11-2021 11:34 Неуловимый аромат любви Скачать торрент  


Неуловимый аромат любви / Love Hard
Информация о фильме:
Название: Неуловимый аромат любви
Оригинальное название: Love Hard
Год выхода: 2021
Жанр: Мелодрама, комедия
Режиссер: Эрнан Хименес

В ролях: Нина Добрев, Микаела Хувер, Даррен Барнет, Локлин Манро, Гарри Шам-мл., Ребекка Стааб, Джимми О. Янг, Джеймс Саито, Дариен Мартин, Мэтти Финочио

Описание: Журналистке из Лос-Анджелеса Натали постоянно не везет в любви. Она пытается устроить личную жизнь с помощью приложения для знакомств и влюбляется в Тэга. Ради него Натали едет через всю страну, чтобы сделать парню сюрприз на Рождество. Но, приехав в город, девушка понимает, что ее возлюбленный не тот, за кого себя выдавал.



Страна: США
Студия: Wonderland Sound and Vision
Продолжительность: 01:46:26
Перевод: Дублированный - Netflix



Информация о файле:
Кодек: AVC
Формат: MKV
Качество: WEB-DLRip-AVC
Видео: MPEG-4 AVC, 1024x512, 24.000 fps, 1750 kbps
Аудио RU: AC3, 6 ch, 48 kHz, 448 kbps
Аудио EN: AC3, 6 ch, 48 kHz, 448 kbps
Субтитры: Русские (Forced, full), украинские (Full), английские

x264 info: frame I:1498 Avg QP:13.05 size: 75657
x264 info: frame P:33634 Avg QP:16.85 size: 20982
x264 info: frame B:118145 Avg QP:19.17 size: 4872
x264 info: consecutive B-frames: 2.4% 3.1% 10.6% 14.5% 12.2% 54.4% 1.1% 0.2% 0.3% 0.4% 0.9%
General
Unique ID : 133612382782583237510388350793919278114 (0x6484CF13B08ECF8BF0A4430DBA24AC22)
Complete name : D:uTorrentРипы wolf1245Love Hard.2021.DUB.Netflix.WEB-DLRip-AVC.[wolf1245.ExKinoRay].mkv
Format : Matroska
Format version : Version 4
File size : 1.97 GiB
Duration : 1 h 46 min
Overall bit rate : 2 645 kb/s
Movie name : Love Hard.2021.DUB.Netflix.WEB-DLRip-AVC.[wolf1245.ExKinoRay]
Encoded date : UTC 2021-11-06 11:21:40
Writing application : mkvmerge v62.0.0 ('Apollo') 64-bit
Writing library : libebml v1.4.2 + libmatroska v1.6.4
Video
ID : 1
Format : AVC
Format/Info : Advanced Video Codec
Format profile : High@L4.1
Format settings : CABAC / 12 Ref Frames
Format settings, CABAC : Yes
Format settings, Reference frames : 12 frames
Codec ID : V_MPEG4/ISO/AVC
Duration : 1 h 46 min
Bit rate : 1 750 kb/s
Width : 1 024 pixels
Height : 512 pixels
Display aspect ratio : 2.000
Frame rate mode : Constant
Frame rate : 24.000 FPS
Color space : YUV
Chroma subsampling : 4:2:0
Bit depth : 8 bits
Scan type : Progressive
Bits/(Pixel*Frame) : 0.139
Stream size : 1.30 GiB (66%)
Title : -=[wolf1245.ExKinoRay]=-
Writing library : x264 core 161 r3020 d198931
Encoding settings : cabac=1 / ref=12 / deblock=1:-2:-2 / analyse=0x3:0x133 / me=umh / subme=10 / psy=1 / psy_rd=1.05:0.10 / mixed_ref=1 / me_range=32 / chroma_me=1 / trellis=2 / 8x8dct=1 / cqm=0 / deadzone=21,11 / fast_pskip=1 / chroma_qp_offset=-3 / threads=10 / lookahead_threads=2 / sliced_threads=0 / nr=0 / decimate=0 / interlaced=0 / bluray_compat=0 / constrained_intra=0 / bframes=10 / b_pyramid=2 / b_adapt=2 / b_bias=0 / direct=3 / weightb=1 / open_gop=0 / weightp=2 / keyint=240 / keyint_min=24 / scenecut=40 / intra_refresh=0 / rc_lookahead=60 / rc=2pass / mbtree=0 / bitrate=1750 / ratetol=1.0 / qcomp=0.60 / qpmin=0 / qpmax=69 / qpstep=4 / cplxblur=20.0 / qblur=0.5 / vbv_maxrate=50000 / vbv_bufsize=62500 / nal_hrd=none / filler=0 / ip_ratio=1.40 / pb_ratio=1.30 / aq=3:0.80
Language : English
Default : Yes
Forced : No
Audio #1
ID : 2
Format : AC-3
Format/Info : Audio Coding 3
Commercial name : Dolby Digital
Codec ID : A_AC3
Duration : 1 h 46 min
Bit rate mode : Constant
Bit rate : 448 kb/s
Channel(s) : 6 channels
Channel layout : L R C LFE Ls Rs
Sampling rate : 48.0 kHz
Frame rate : 31.250 FPS (1536 SPF)
Compression mode : Lossy
Stream size : 341 MiB (17%)
Title : DUB | Netflix
Language : Russian
Service kind : Complete Main
Default : Yes
Forced : No
Audio #2
ID : 3
Format : AC-3
Format/Info : Audio Coding 3
Commercial name : Dolby Digital
Codec ID : A_AC3
Duration : 1 h 46 min
Bit rate mode : Constant
Bit rate : 448 kb/s
Channel(s) : 6 channels
Channel layout : L R C LFE Ls Rs
Sampling rate : 48.0 kHz
Frame rate : 31.250 FPS (1536 SPF)
Compression mode : Lossy
Stream size : 341 MiB (17%)
Title : Original | English
Language : English
Service kind : Complete Main
Default : No
Forced : No
Text #1
ID : 4
Format : UTF-8
Codec ID : S_TEXT/UTF8
Codec ID/Info : UTF-8 Plain Text
Duration : 1 h 44 min
Bit rate : 3 b/s
Count of elements : 55
Stream size : 2.43 KiB (0%)
Title : Forced
Language : Russian
Default : Yes
Forced : Yes
Text #2
ID : 5
Format : UTF-8
Codec ID : S_TEXT/UTF8
Codec ID/Info : UTF-8 Plain Text
Duration : 1 h 44 min
Bit rate : 113 b/s
Count of elements : 1560
Stream size : 86.9 KiB (0%)
Title : Russian
Language : Russian
Default : No
Forced : No
Text #3
ID : 6
Format : UTF-8
Codec ID : S_TEXT/UTF8
Codec ID/Info : UTF-8 Plain Text
Duration : 1 h 44 min
Bit rate : 108 b/s
Count of elements : 1556
Stream size : 82.9 KiB (0%)
Title : Ukrainian
Language : Ukrainian
Default : No
Forced : No
Text #4
ID : 7
Format : UTF-8
Codec ID : S_TEXT/UTF8
Codec ID/Info : UTF-8 Plain Text
Duration : 1 h 44 min
Bit rate : 100 b/s
Count of elements : 1996
Stream size : 76.8 KiB (0%)
Title : English (SDH)
Language : English
Default : No
Forced : No
Релиз от:
Автор релиза:
pb.wtf



Скачать Неуловимый аромат любви через торрент https://i116.fastpic.org/big/2021/1106/f8/af3934afc78ff33d9d76610e54348bf8.jpg Скачать, смотреть онлайн Неуловимый аромат любви бесплантно в хорошем качестве Описание: Журналистке из Лос-Анджелеса Натали постоянно не везет в любви. Она пытается устроить личную жизнь с помощью приложения для ... 10 10 4
Info! Золотая раздача, скачанное не засчитывается.
Торрент: Зарегистрирован [2021-11-06 11:34] · скачан: 80 раз
Статус: √ проверено
Размер: 1.97 GB
Как cкачать? Как скачать Неуловимый аромат любви через торрент | UTorrent

28-11-2019 20:33  

Отключить всю рекламу на сайте

    Дорогой пользователь! Огромная просьба, поблагодарите релизера, оцените раздачу и оставьте свои комментарий, если Вы скачали Неуловимый аромат любви через торрент бесплатно!
    Комментировать посты могут только пользователи прошедшие не сложную регистрацию
    Показать сообщения:    

    Неуловимый аромат любви через торрент
    Скачать бесплатно Неуловимый аромат любви
    Неуловимый аромат любви скачать торрент
    Неуловимый аромат любви смотреть онлайн
    Cкачать фильм Неуловимый аромат любви бесплатно
    Неуловимый аромат любви скачать торрент в хорошем качестве
    Неуловимый аромат любви смотреть онлайн бесплатно в хорошем качестве


    Вы не можете начинать темы
    Вы не можете отвечать на сообщения
    Вы не можете редактировать свои сообщения
    Вы не можете удалять свои сообщения
    Вы не можете голосовать в опросах
    Вы не можете прикреплять файлы к сообщениям
    Вы можете скачивать файлы