Присоединяйтесь к нам в Telegram!, здесь всегда актуальный адрес сайта, оперативная поддержка и многое другое!!

>

5.9

iTunes

7.4

iTunes

9.4

1 сезон

1

7.4

2 сезон

7.2

iTunes

7.3

1 сезон

13

6.1

iTunes

8.3

GOG

30

ULTIMATE

pack

9.9

Лицензия

ВАЖНО

ИГРА 18+

pack

7.3

RePack

MK11

7.7

RePack

jed

7.8

RePack

fifa19

8.5

RePack

RDR2

RePack

NEED FOR SPEED™ PAYBACK

5 сезон

9 сезон

Бесстыжие 9 сезон

Все сериалы

все сериалы на PB.wtf

RePack

FAR CRY 5

Anonymous, доброе утро, мы катастрофически не успеваем собрать деньги на оплату серверов, помогите нам пожалуйста 5,10,15р., для нас важна любая помощь . В качестве благодарности мы отключим Вам всю рекламу на сайте (укажите свой ник в строку Ваше имя)!

×
  
Magnet ссылка

Яра / Yara (Марко Туллио Джордана) [2021, триллер, драма, криминал, WEB-DLRip-AVC] Dub [Netflix] pb.wtf

Яра через торрент pb.wtf

Раздают: 21 [ 0 KB/s ]
Размер: 1.45 GB | Добавлен: 20 д. назад | Торрент скачан:95 раз
Смотреть онлайн Яра | Скачать    Ребята, помогите собрать деньги на оплату серверов!!!

06-11-2021 13:45 Яра Скачать торрент  

Яра
Yara

Страна: Италия
Жанр: триллер, драма, криминал
Год выпуска: 2021
Продолжительность: 01:36:36

Перевод: Профессиональный (полное дублирование) [Пифагор / Netflix]
Субтитры: русские (форсированные, полные), украинские (форсированные, полные), английские (форсированные, полные, SDH), итальянские (SDH)
Оригинальная аудиодорожка: итальянский

Режиссер: Марко Туллио Джордана / Marco Tullio Giordana

В ролях: Изабелла Рагонезе, Алессио Бони, Томас Трабакки, Сандра Тоффолатти, Роберто Дзибетти

Описание: Дело об исчезновении 13-летней девочки всецело поглощает прокурора, которая не остановится ни перед чем, чтобы установить истину.



Релиз:

Автор рипа: stalkerok

Сэмпл

Качество видео: WEB-DLRip-AVC | Исходник: Yara.2021.1080p.NF.WEB-DL.DDP5.1.x264-TeamHD
Формат видео: MKV
Видео кодек: AVC
Аудио кодек: AC3
Видео: AVC, 1307 Кбит/сек, 1130x472 (2.40:1), 24 кадр/сек
Аудио №1: AC3, 448 Кбит/сек, 48 КГц, 5.1 - русский
Аудио №2: AC3, 384 Кбит/сек, 48 КГц, 5.1 - итальянский
---[Information] [06.11.2021 15:32:42] x264 [info]: frame I:984 Avg QP:15.38 size: 45024
---[Information] [06.11.2021 15:32:42] x264 [info]: frame P:29861 Avg QP:18.08 size: 15655
---[Information] [06.11.2021 15:32:42] x264 [info]: frame B:108274 Avg QP:21.43 size: 4021
---[Information] [06.11.2021 15:32:42] x264 [info]: consecutive B-frames: 2.4% 2.9% 9.2% 11.9% 12.4% 54.1% 1.9% 0.4% 0.5% 0.2% 1.8% 0.1% 0.3% 0.4% 1.4%

General
Unique ID : 63150274068906637156139657633759842116 (0x2F824CE5DF09C582F5065763A17D4F44)
Complete name : J:\Yara.2021\Yara.2021.NF.WEB-DLRip.x264.Rus.Ita.stalkerok.New-Team.mkv
Format : Matroska
Format version : Version 4 / Version 2
File size : 1.45 GiB
Duration : 1 h 36 min
Overall bit rate : 2 142 kb/s
Movie name : Яра (2021) | Rip by stalkerok
Encoded date : UTC 2021-11-06 13:19:14
Writing application : mkvmerge v62.0.0 ('Apollo') 64-bit
Writing library : libebml v1.4.2 + libmatroska v1.6.4

Video
ID : 1
Format : AVC
Format/Info : Advanced Video Codec
Format profile : High@L4.1
Format settings, CABAC : Yes
Format settings, ReFrames : 12 frames
Codec ID : V_MPEG4/ISO/AVC
Duration : 1 h 36 min
Bit rate : 1 307 kb/s
Width : 1 130 pixels
Height : 472 pixels
Display aspect ratio : 2.40:1
Frame rate mode : Constant
Frame rate : 24.000 FPS
Color space : YUV
Chroma subsampling : 4:2:0
Bit depth : 8 bits
Scan type : Progressive
Bits/(Pixel*Frame) : 0.102
Stream size : 903 MiB (61%)
Writing library : x264 core 164 r3065+55M 280faca t_mod_New [(8 & 10)-bit@all X86_64]
Encoding settings : cabac=1 / ref=12 / deblock=1:-3:-2 / analyse=0x3:0x133 / me=umh / subme=10 / psy=1 / fade_compensate=0.00 / psy_rd=1.00:0.00 / mixed_ref=1 / me_range=32 / chroma_me=1 / trellis=2 / 8x8dct=1 / cqm=0 / deadzone=21,11 / fast_pskip=0 / chroma_qp_offset=-2 / threads=12 / lookahead_threads=3 / sliced_threads=0 / nr=0 / decimate=1 / interlaced=0 / bluray_compat=0 / constrained_intra=0 / fgo=0 / bframes=14 / b_pyramid=2 / b_adapt=2 / b_bias=0 / direct=3 / weightb=1 / open_gop=0 / weightp=2 / keyint=240 / keyint_min=23 / scenecut=40 / intra_refresh=0 / rc_lookahead=60 / rc=crf / mbtree=0 / crf=19.8000 / qcomp=0.65 / qpmin=0:0:0 / qpmax=69:69:69 / qpstep=4 / vbv_maxrate=50000 / vbv_bufsize=62500 / crf_max=0.0 / nal_hrd=none / filler=0 / ip_ratio=1.40 / pb_ratio=1.30 / aq=3:0.90 / aq-sensitivity=10.00 / aq-factor=1.00:1.00:1.00 / aq2=0 / aq3=0
Default : Yes
Forced : No

Audio #1
ID : 2
Format : AC-3
Format/Info : Audio Coding 3
Mode extension : CM (complete main)
Format settings, Endianness : Big
Codec ID : A_AC3
Duration : 1 h 36 min
Bit rate mode : Constant
Bit rate : 448 kb/s
Channel(s) : 6 channels
Channel positions : Front: L C R, Side: L R, LFE
Sampling rate : 48.0 kHz
Frame rate : 31.250 FPS (1536 spf)
Compression mode : Lossy
Stream size : 310 MiB (21%)
Language : Russian
Default : Yes
Forced : No

Audio #2
ID : 3
Format : AC-3
Format/Info : Audio Coding 3
Mode extension : CM (complete main)
Format settings, Endianness : Big
Codec ID : A_AC3
Duration : 1 h 36 min
Bit rate mode : Constant
Bit rate : 384 kb/s
Channel(s) : 6 channels
Channel positions : Front: L C R, Side: L R, LFE
Sampling rate : 48.0 kHz
Frame rate : 31.250 FPS (1536 spf)
Compression mode : Lossy
Stream size : 265 MiB (18%)
Language : Italian
Default : No
Forced : No

Text #1
ID : 4
Format : UTF-8
Codec ID : S_TEXT/UTF8
Codec ID/Info : UTF-8 Plain Text
Duration : 1 h 34 min
Bit rate : 2 b/s
Count of elements : 32
Stream size : 1.98 KiB (0%)
Title : Forced
Language : Russian
Default : Yes
Forced : No

Text #2
ID : 5
Format : UTF-8
Codec ID : S_TEXT/UTF8
Codec ID/Info : UTF-8 Plain Text
Duration : 1 h 34 min
Bit rate : 111 b/s
Count of elements : 1274
Stream size : 76.6 KiB (0%)
Language : Russian
Default : No
Forced : No

Text #3
ID : 6
Format : UTF-8
Codec ID : S_TEXT/UTF8
Codec ID/Info : UTF-8 Plain Text
Duration : 1 h 34 min
Bit rate : 2 b/s
Count of elements : 33
Stream size : 1.94 KiB (0%)
Title : Forced
Language : Ukrainian
Default : No
Forced : No

Text #4
ID : 7
Format : UTF-8
Codec ID : S_TEXT/UTF8
Codec ID/Info : UTF-8 Plain Text
Duration : 1 h 34 min
Bit rate : 108 b/s
Count of elements : 1257
Stream size : 75.0 KiB (0%)
Language : Ukrainian
Default : No
Forced : No

Text #5
ID : 8
Format : UTF-8
Codec ID : S_TEXT/UTF8
Codec ID/Info : UTF-8 Plain Text
Duration : 1 h 34 min
Bit rate : 1 b/s
Count of elements : 31
Stream size : 1.12 KiB (0%)
Title : Forced
Language : English
Default : No
Forced : No

Text #6
ID : 9
Format : UTF-8
Codec ID : S_TEXT/UTF8
Codec ID/Info : UTF-8 Plain Text
Duration : 1 h 33 min
Bit rate : 69 b/s
Count of elements : 1283
Stream size : 47.6 KiB (0%)
Language : English
Default : No
Forced : No

Text #7
ID : 10
Format : UTF-8
Codec ID : S_TEXT/UTF8
Codec ID/Info : UTF-8 Plain Text
Duration : 1 h 34 min
Bit rate : 84 b/s
Count of elements : 1559
Stream size : 58.4 KiB (0%)
Title : SDH
Language : English
Default : No
Forced : No

Text #8
ID : 11
Format : UTF-8
Codec ID : S_TEXT/UTF8
Codec ID/Info : UTF-8 Plain Text
Duration : 1 h 28 min
Bit rate : 103 b/s
Count of elements : 1435
Stream size : 67.4 KiB (0%)
Title : SDH
Language : Italian
Default : No
Forced : No
pb.wtf



Скачать Яра через торрент http://i6.imageban.ru/out/2017/09/18/2ff75c0c358795c5946784cc1680714d.png Скачать, смотреть онлайн Яра бесплантно в хорошем качестве Описание: Дело об исчезновении 13-летней девочки всецело поглощает прокурора, которая не остановится ни перед чем, чтобы установить ... 10 10 5
Info! Золотая раздача, скачанное не засчитывается.
Торрент: Зарегистрирован [2021-11-06 13:45] · скачан: 95 раз
Статус: √ проверено
Размер: 1.45 GB
Как cкачать? Как скачать Яра через торрент | UTorrent

% Раздел Тема Автор DL S | L
Фильмы 2021 [DVDrip, WEB-DLRip, HDrip] (DUB, MVO) [ 1.46 GB ] Яра / Yara [2021 WEB-DLRip] - [Пифагор / Netflix] Twi7ter Скачать
12 | 0
Фильмы 2021 [DVDrip, WEB-DLRip, HDrip] (DUB, MVO) [ 1.46 GB ] Яра / Yara [2021 WEB-DLRip] DUB [Пифагор / Netflix] bober100 Скачать
2 | 0
Фильмы (WEB-DL 720p, 1080p) [ 3.54 GB ] Яра / Yara [2021 WEB-DL 1080p] DUB [Пифагор / Netflix] bober100 Скачать
6 | 0
HD ролики [ 666 MB ] Марселла и Кьяра: обучение Марселлы / Marcella And Kyara: Teaching Marcella. [TeachMeFisting / 21 sextury] [2014 Natural Tits Lesbians Oral Fisting. SATRip 720p] Pir@tya2010 Скачать
1 | 0

28-11-2019 20:33  

Отключить всю рекламу на сайте

12-11-2021 12:26 Яра Скачать торрент  

Не скажу, что особо интересный фильм. Хоть и снят на реальных событиях, ну уж очень напоминает мине сериал "Код убийцы", а он интересный и тоже на реальных событиях.pb.wtf



    Дорогой пользователь! Огромная просьба, поблагодарите релизера, оцените раздачу и оставьте свои комментарий, если Вы скачали Яра через торрент бесплатно!
    Комментировать посты могут только пользователи прошедшие не сложную регистрацию
    Показать сообщения:    

    Яра через торрент
    Скачать бесплатно Яра
    Яра скачать торрент
    Яра смотреть онлайн
    Cкачать фильм Яра бесплатно
    Яра скачать торрент в хорошем качестве
    Яра смотреть онлайн бесплатно в хорошем качестве


    Вы не можете начинать темы
    Вы не можете отвечать на сообщения
    Вы не можете редактировать свои сообщения
    Вы не можете удалять свои сообщения
    Вы не можете голосовать в опросах
    Вы не можете прикреплять файлы к сообщениям
    Вы можете скачивать файлы