Присоединяйтесь к нам в Telegram!, здесь всегда актуальный адрес сайта, оперативная поддержка и многое другое!!

>

5.9

iTunes

7.4

iTunes

9.4

1 сезон

1

7.4

2 сезон

7.2

iTunes

7.3

1 сезон

13

6.1

iTunes

8.3

Пиратка

30

ULTIMATE

pack

9.9

Лицензия

ВАЖНО

ИГРА 18+

pack

7.3

RePack

MK11

7.7

RePack

jed

7.8

RePack

fifa19

8.5

RePack

RDR2

RePack

NEED FOR SPEED™ PAYBACK

5 сезон

9 сезон

Бесстыжие 9 сезон

Все сериалы

все сериалы на PB.wtf

RePack

FAR CRY 5

Anonymous, доброе утро, мы катастрофически не успеваем собрать деньги на оплату серверов, помогите нам пожалуйста 5,10,15р., для нас важна любая помощь . В качестве благодарности мы отключим Вам всю рекламу на сайте (укажите свой ник в строку Ваше имя)!

×
  
Magnet ссылка

Воспоминания / Reminiscence (Лиза Джой) [2021, Фантастика, триллер, мелодрама, детектив, HDRip-AVC] DUB [Пифагор] от MediaBit pb.wtf

Воспоминания через торрент pb.wtf

Раздают: 11 [ 25 KB/s ]
Размер: 2.23 GB | Добавлен: 29 д. назад | Торрент скачан:166 раз
Смотреть онлайн Воспоминания | Скачать    Ребята, помогите собрать деньги на оплату серверов!!!

06-11-2021 15:41 Воспоминания Скачать торрент  


Воспоминания / Reminiscence
Информация о фильме:
Название: Воспоминания
Оригинальное название: Reminiscence
Год выхода: 2021
Жанр: Фантастика, триллер, мелодрама, детектив
Режиссер: Лиза Джой

В ролях: Ребекка Фергюсон, Хью Джекман, Тандиве Ньютон, Натали Мартинес, Анджела Сарафян, Клифф Кёртис, Бретт Каллен, Джованни Крус, Дэниэл Ву, Тери Уайбл

Описание: Недалёкое будущее, Майами почти полностью ушёл под воду из-за глобального потепления. Частный детектив Ник Баннистер с помощью специальной технологии выискивает в человеческой памяти нужные моменты, чтобы заказчик мог заново пережить прошлое и вспомнить что-то важное. Однажды на пороге его офиса появляется клиентка с простой просьбой: она забыла, где оставила ключи. Обычная сессия превращается в полноценный роман, пока в один день женщина не исчезает без следа.



Страна: США
Студия: FilmNation EntertainmentKilter FilmsMichael De Luca Productions
Продолжительность: 01:55:56
Перевод: Дублированный - Пифагор



Информация о файле:
Кодек: AVC
Формат: MKV
Качество: HDRip-AVC
Видео: MPEG-4 AVC, 1024x428, 23.976 fps, 1850 kbps
Аудио RU: AC3, 6 ch, 48 kHz, 448 kbps
Аудио EN: AC3, 6 ch, 48 kHz, 448 kbps
Субтитры: Русские (Forced, full), английские

x264 info: frame I:1509 Avg QP:13.27 size: 68451
x264 info: frame P:33469 Avg QP:16.81 size: 21009
x264 info: frame B:131874 Avg QP:18.77 size: 6080
x264 info: consecutive B-frames: 1.8% 2.1% 5.2% 15.5% 12.3% 50.9% 6.4% 1.2% 1.9% 0.6% 2.0%
General
Unique ID : 37413227456818476602039060486458889504 (0x1C258687A944DC7A1FB392A238CAD520)
Complete name : D:uTorrentРипы wolf1245Reminiscence.2021.DUB.PIFAGOR.HDRip-AVC..[wolf1245.ExKinoRay].mkv
Format : Matroska
Format version : Version 4
File size : 2.23 GiB
Duration : 1 h 55 min
Overall bit rate : 2 747 kb/s
Movie name : Reminiscence.2021.DUB.PIFAGOR.HDRip-AVC..[wolf1245.ExKinoRay]
Encoded date : UTC 2021-11-06 15:26:41
Writing application : mkvmerge v62.0.0 ('Apollo') 64-bit
Writing library : libebml v1.4.2 + libmatroska v1.6.4
Video
ID : 1
Format : AVC
Format/Info : Advanced Video Codec
Format profile : High@L4.1
Format settings : CABAC / 12 Ref Frames
Format settings, CABAC : Yes
Format settings, Reference frames : 12 frames
Codec ID : V_MPEG4/ISO/AVC
Duration : 1 h 55 min
Bit rate : 1 850 kb/s
Width : 1 024 pixels
Height : 428 pixels
Display aspect ratio : 2.40:1
Frame rate mode : Constant
Frame rate : 23.976 (24000/1001) FPS
Color space : YUV
Chroma subsampling : 4:2:0
Bit depth : 8 bits
Scan type : Progressive
Bits/(Pixel*Frame) : 0.176
Stream size : 1.50 GiB (67%)
Title : -=[wolf1245.ExKinoRay]=-
Writing library : x264 core 161 r3020 d198931
Encoding settings : cabac=1 / ref=12 / deblock=1:-3:-3 / analyse=0x3:0x133 / me=umh / subme=11 / psy=1 / psy_rd=1.02:0.05 / mixed_ref=1 / me_range=48 / chroma_me=1 / trellis=2 / 8x8dct=1 / cqm=0 / deadzone=21,11 / fast_pskip=1 / chroma_qp_offset=-3 / threads=10 / lookahead_threads=2 / sliced_threads=0 / nr=0 / decimate=0 / interlaced=0 / bluray_compat=0 / constrained_intra=0 / bframes=10 / b_pyramid=2 / b_adapt=2 / b_bias=0 / direct=3 / weightb=1 / open_gop=0 / weightp=2 / keyint=240 / keyint_min=24 / scenecut=40 / intra_refresh=0 / rc_lookahead=60 / rc=2pass / mbtree=0 / bitrate=1850 / ratetol=1.0 / qcomp=0.60 / qpmin=0 / qpmax=69 / qpstep=4 / cplxblur=20.0 / qblur=0.5 / vbv_maxrate=50000 / vbv_bufsize=62500 / nal_hrd=none / filler=0 / ip_ratio=1.40 / pb_ratio=1.30 / aq=1:0.80
Language : English
Default : Yes
Forced : No
Color range : Limited
Color primaries : BT.709
Matrix coefficients : BT.709
Audio #1
ID : 2
Format : AC-3
Format/Info : Audio Coding 3
Commercial name : Dolby Digital
Codec ID : A_AC3
Duration : 1 h 55 min
Bit rate mode : Constant
Bit rate : 448 kb/s
Channel(s) : 6 channels
Channel layout : L R C LFE Ls Rs
Sampling rate : 48.0 kHz
Frame rate : 31.250 FPS (1536 SPF)
Compression mode : Lossy
Stream size : 372 MiB (16%)
Title : Dub [Pifagor]
Language : Russian
Service kind : Complete Main
Default : Yes
Forced : No
Audio #2
ID : 3
Format : AC-3
Format/Info : Audio Coding 3
Commercial name : Dolby Digital
Codec ID : A_AC3
Duration : 1 h 55 min
Bit rate mode : Constant
Bit rate : 448 kb/s
Channel(s) : 6 channels
Channel layout : L R C LFE Ls Rs
Sampling rate : 48.0 kHz
Frame rate : 31.250 FPS (1536 SPF)
Compression mode : Lossy
Stream size : 372 MiB (16%)
Title : Original
Language : English
Service kind : Complete Main
Default : No
Forced : No
Text #1
ID : 4
Format : UTF-8
Codec ID : S_TEXT/UTF8
Codec ID/Info : UTF-8 Plain Text
Duration : 1 h 36 min
Bit rate : 2 b/s
Count of elements : 39
Stream size : 1.63 KiB (0%)
Title : Forced
Language : Russian
Default : Yes
Forced : Yes
Text #2
ID : 5
Format : UTF-8
Codec ID : S_TEXT/UTF8
Codec ID/Info : UTF-8 Plain Text
Duration : 1 h 47 min
Bit rate : 98 b/s
Count of elements : 1489
Stream size : 77.4 KiB (0%)
Title : Full
Language : Russian
Default : No
Forced : No
Text #3
ID : 6
Format : UTF-8
Codec ID : S_TEXT/UTF8
Codec ID/Info : UTF-8 Plain Text
Duration : 1 h 50 min
Bit rate : 62 b/s
Count of elements : 1623
Stream size : 51.1 KiB (0%)
Language : English
Default : No
Forced : No
Menu
00:00:00.000 : :Chapter 01
00:09:31.446 : :Chapter 02
00:16:54.055 : :Chapter 03
00:25:04.712 : :Chapter 04
00:34:40.704 : :Chapter 05
00:42:31.299 : :Chapter 06
00:51:19.201 : :Chapter 07
01:00:36.800 : :Chapter 08
01:09:12.814 : :Chapter 09
01:18:36.837 : :Chapter 10
01:28:21.713 : :Chapter 11
01:38:00.041 : :Chapter 12
01:41:52.106 : :Chapter 13
01:49:30.355 : :Chapter 14
Релиз от:
Автор релиза:
pb.wtf



Скачать Воспоминания через торрент https://i116.fastpic.org/big/2021/1106/d6/a01c7882b867496e3125e0dd24c4dcd6.jpg Скачать, смотреть онлайн Воспоминания бесплантно в хорошем качестве Описание: Недалёкое будущее, Майами почти полностью ушёл под воду из-за глобального потепления. Частный детектив Ник Баннистер с помощью ... 6.3 10 6
Торрент: Зарегистрирован [2021-11-06 15:41] · скачан: 166 раз
Статус: √ проверено
Размер: 2.23 GB
Как cкачать? Как скачать Воспоминания через торрент | UTorrent

28-11-2019 20:33  

Отключить всю рекламу на сайте

15-11-2021 15:33 Воспоминания Скачать торрент  

мутьpb.wtf



    Дорогой пользователь! Огромная просьба, поблагодарите релизера, оцените раздачу и оставьте свои комментарий, если Вы скачали Воспоминания через торрент бесплатно!
    Комментировать посты могут только пользователи прошедшие не сложную регистрацию
    Показать сообщения:    

    Воспоминания через торрент
    Скачать бесплатно Воспоминания
    Воспоминания скачать торрент
    Воспоминания смотреть онлайн
    Cкачать фильм Воспоминания бесплатно
    Воспоминания скачать торрент в хорошем качестве
    Воспоминания смотреть онлайн бесплатно в хорошем качестве


    Вы не можете начинать темы
    Вы не можете отвечать на сообщения
    Вы не можете редактировать свои сообщения
    Вы не можете удалять свои сообщения
    Вы не можете голосовать в опросах
    Вы не можете прикреплять файлы к сообщениям
    Вы можете скачивать файлы