Присоединяйтесь к нам в Telegram!, здесь всегда актуальный адрес сайта, оперативная поддержка и многое другое!!

>

5.9

iTunes

7.4

iTunes

9.4

1 сезон

1

7.4

2 сезон

7.2

iTunes

7.3

1 сезон

13

6.1

iTunes

8.3

GOG

30

ULTIMATE

pack

9.9

Лицензия

ВАЖНО

ИГРА 18+

pack

7.3

RePack

MK11

7.7

RePack

jed

7.8

RePack

fifa19

8.5

RePack

RDR2

RePack

NEED FOR SPEED™ PAYBACK

5 сезон

9 сезон

Бесстыжие 9 сезон

Все сериалы

все сериалы на PB.wtf

RePack

FAR CRY 5

Anonymous, доброе утро, мы катастрофически не успеваем собрать деньги на оплату серверов, помогите нам пожалуйста 5,10,15р., для нас важна любая помощь . В качестве благодарности мы отключим Вам всю рекламу на сайте (укажите свой ник в строку Ваше имя)!

×
  
Magnet ссылка

Веном 2 / Venom: Let There Be Carnage (Энди Серкис) [2021, Фантастика, боевик, триллер, приключения, WEB-DLRip-AVC] DUB [iTunes] pb.wtf

Веном 2 через торрент pb.wtf

Раздают: 5 [ 0.4 KB/s ]
Размер: 1.45 GB | Добавлен: 8 д. назад | Торрент скачан:67 раз
Смотреть онлайн Веном 2 | Скачать    Ребята, помогите собрать деньги на оплату серверов!!!

06-11-2021 16:55 Веном 2 Скачать торрент  

Веном 2 | Venom: Let There Be Carnage
Год выпуска: 2021
Страна: США, Великобритания, Канада
Выпущено: Marvel Entertainment, Pascal Pictures, Sony Pictures Entertainment (SPE)
Жанр: Фантастика, боевик, триллер, приключения
Продолжительность: 01:37:33
Перевод: Дублированный | iTunes
Субтитры: Русские (Full (Tatyana Omelchenko)), английские

Режиссер: Энди Серкис

rating

В ролях: Том Харди, Вуди Харрельсон, Мишель Уильямс, Наоми Харрис, Рид Скотт, Стивен Грэм, Пегги Лу, Сиан Уэббер, Мишель Гринидж, Роб Боуэн, Лоуренс Спеллман, Литтл Симз, Джек Бандейра, Олумиде Олорунфеми, Скробиус Пип, Амру Аль-Кадхи, Бо Сарджент, Брайан Коупленд, Стюарт Александр, Шон Делани

Описание: Более чем через год после тех событий журналист Эдди Брок пытается приспособиться к жизни в качестве хозяина инопланетного симбиота Венома, который наделяет его сверхчеловеческими способностями. Брок пытается возродить свою карьеру и берет интервью у серийного убийцы Клетуса Касади, который по воле случая становится хозяином Карнажа и сбегает из тюрьмы после неудавшейся казни.

Качество: WEB-DLRip-AVC
Формат: MKV

Видео: 1024x552 at 23.976 fps, x264@L4.1, ~1746 kbps
Аудио: 48 kHz, AC3 Dolby Digital, 3/2 (L, C, R, l, r) + LFE ch, ~384 Kbps
скриншот  скриншот  скриншот  скриншот  скриншот  

x264 [info]: frame I:1036 Avg QP:13.51 size: 62822
x264 [info]: frame P:37189 Avg QP:16.12 size: 18115
x264 [info]: frame B:102124 Avg QP:18.56 size: 5236
x264 [info]: consecutive B-frames: 3.3% 4.1% 12.4% 50.7% 10.2% 13.9% 2.2% 1.5% 0.4% 0.3% 0.4%

General
Unique ID : 210510504339426672273624690317314900185 (0x9E5ED930300DBEC8C96167D5B1D240D9)
Complete name : H:Venom.Let.There.Be.Carnage.2021.AMZN.WEB-DLRip-AVC.mkv
Format : Matroska
Format version : Version 4
File size : 1.45 GiB
Duration : 1 h 37 min
Overall bit rate : 2 126 kb/s
Encoded date : UTC 2021-11-23 12:04:30
Writing application : mkvmerge v63.0.0 ('Everything') 64-bit
Writing library : libebml v1.4.2 + libmatroska v1.6.4
Cover : Yes
Attachments : cover.jpg / cover 2.jpg

Video
ID : 1
Format : AVC
Format/Info : Advanced Video Codec
Format profile : High@L4.1
Format settings : CABAC / 12 Ref Frames
Format settings, CABAC : Yes
Format settings, Reference : 12 frames
Codec ID : V_MPEG4/ISO/AVC
Duration : 1 h 37 min
Bit rate : 1 746 kb/s
Width : 1 024 pixels
Height : 552 pixels
Display aspect ratio : 1.85:1
Frame rate mode : Constant
Frame rate : 23.976 (24000/1001) FPS
Color space : YUV
Chroma subsampling : 4:2:0
Bit depth : 8 bits
Scan type : Progressive
Bits/(Pixel*Frame) : 0.129
Stream size : 1.19 GiB (82%)
Title : -=DoMiNo=-
Writing library : x264 core 164 r3075+55M 97d28bb t_mod_New [(8 & 10)-bit@all X86_64]
Encoding settings : cabac=1 / ref=12 / deblock=1:-2:-2 / analyse=0x3:0x133 / me=umh / subme=10 / psy=1 / fade_compensate=0.00 / psy_rd=1.05:0.15 / mixed_ref=1 / me_range=32 / chroma_me=1 / trellis=2 / 8x8dct=1 / cqm=0 / deadzone=21,11 / fast_pskip=0 / chroma_qp_offset=-3 / threads=17 / lookahead_threads=4 / sliced_threads=0 / nr=0 / decimate=0 / interlaced=0 / bluray_compat=0 / constrained_intra=0 / fgo=0 / bframes=10 / b_pyramid=2 / b_adapt=2 / b_bias=0 / direct=3 / weightb=1 / open_gop=0 / weightp=2 / keyint=250 / keyint_min=23 / scenecut=40 / intra_refresh=0 / rc_lookahead=60 / rc=2pass / mbtree=0 / bitrate=1746 / ratetol=1.0 / qcomp=0.60 / qpmin=0:0:0 / qpmax=69:69:69 / qpstep=4 / cplxblur=20.0 / qblur=0.5 / vbv_maxrate=50000 / vbv_bufsize=62500 / nal_hrd=none / filler=0 / ip_ratio=1.40 / pb_ratio=1.30 / aq=3:0.80 / aq-sensitivity=10.00 / aq-factor=1.00:1.00:1.00 / aq2=0 / aq3=0
Language : English
Default : Yes
Forced : No
Color range : Limited
Color primaries : BT.709
Transfer characteristics : BT.709
Matrix coefficients : BT.709

Audio
ID : 2
Format : AC-3
Format/Info : Audio Coding 3
Commercial name : Dolby Digital
Codec ID : A_AC3
Duration : 1 h 37 min
Bit rate mode : Constant
Bit rate : 384 kb/s
Channel(s) : 6 channels
Channel layout : L R C LFE Ls Rs
Sampling rate : 48.0 kHz
Frame rate : 31.250 FPS (1536 SPF)
Compression mode : Lossy
Stream size : 267 MiB (18%)
Title : DUB
Language : Russian
Service kind : Complete Main
Default : Yes
Forced : Yes

Text #1
ID : 3
Format : UTF-8
Codec ID : S_TEXT/UTF8
Codec ID/Info : UTF-8 Plain Text
Duration : 1 h 36 min
Bit rate : 72 b/s
Count of elements : 1086
Stream size : 50.8 KiB (0%)
Title : Full (Tatyana Omelchenko)
Language : Russian
Default : No
Forced : No

Text #2
ID : 4
Format : UTF-8
Codec ID : S_TEXT/UTF8
Codec ID/Info : UTF-8 Plain Text
Duration : 1 h 35 min
Bit rate : 60 b/s
Count of elements : 1495
Stream size : 42.3 KiB (0%)
Language : English
Default : No
Forced : No

Text #3
ID : 5
Format : UTF-8
Codec ID : S_TEXT/UTF8
Codec ID/Info : UTF-8 Plain Text
Duration : 1 h 36 min
Bit rate : 71 b/s
Count of elements : 1860
Stream size : 50.5 KiB (0%)
Title : SDH
Language : English
Default : No
Forced : No
pb.wtf



Скачать Веном 2 через торрент https://i116.fastpic.org/big/2021/1123/2a/11c2f86e55eeb495888f43715f3be82a.jpg Скачать, смотреть онлайн Веном 2 бесплантно в хорошем качестве Описание: Более чем через год после тех событий журналист Эдди Брок пытается приспособиться к жизни в качестве хозяина инопланетного ... 9.7 10 62
Торрент: Зарегистрирован [2021-11-23 12:20] · скачан: 67 раз
Статус: √ проверено
Размер: 1.45 GB
Как cкачать? Как скачать Веном 2 через торрент | UTorrent

% Раздел Тема Автор DL S | L
Фильмы с украинским озвучиванием [ 5.1 GB ] Веном 2 / Веном 2: Карнаж / Venom: Let There Be Carnage [2021 WEB-DL 1080p] [Ukr DUB] killermax2013 Скачать
3 | 1
Фильмы 2021 [DVDrip, WEB-DLRip, HDrip] (DUB, MVO) [ 1.41 GB ] Веном 2 / Venom: Let There Be Carnage [2021 WEB-DLRip-AVC] Dub [КиноПоиск HD] sokol_ok Скачать
115 | 15
Фильмы 2021 [DVDrip, WEB-DLRip, HDrip] (DUB, MVO) [ 1.46 GB ] Веном 2 / Venom: Let There Be Carnage [2021 WEB-DLRip] - [ / Кинопоиск HD] Twi7ter Скачать
71 | 2
Ultra HD (UHD: 2K, 4K, 8K) — видео сверхвысокой чёткости [ 11.09 GB ] Веном 2 / Venom: Let There Be Carnage [2021 UHD WEB-DL-HEVC 2160p] DUB [Кинопоиск HD ] bober100 Скачать
45 | 2
Фильмы (WEB-DL 720p, 1080p) [ 5.58 GB ] Веном 2 / Venom: Let There Be Carnage [2021 WEB-DL 1080p] DUB [Кинопоиск HD ] +MVO [Jaskier] bober100 Скачать
58 | 0
Фильмы 2021 [DVDrip, WEB-DLRip, HDrip] (DUB, MVO) [ 1.46 GB ] Веном 2 / Venom: Let There Be Carnage [2021 WEB-DLRip] DUB [Кинопоиск HD ] bober100 Скачать
10 | 0
Фильмы (WEB-DL 720p, 1080p) [ 5.58 GB ] Веном 2 / Venom: Let There Be Carnage [2021 WEB-DL 1080p] DUB [Кинопоиск HD ] bober100 Скачать
16 | 0


Последний раз редактировалось: bober100 (2021-11-23 14:05), всего редактировалось 5 раз(а)

28-11-2019 20:33  

Отключить всю рекламу на сайте

06-11-2021 20:30 Веном 2 Скачать торрент  

Уважаю Тома Харди, но даже он не спасает этот фильм. Первая часть тоже была так себе, но эта - провал. Мнение мое, - совпадать не обязательно.pb.wtf



09-11-2021 12:41 Веном 2 Скачать торрент  

на один раз, пересматривать не захочется, фильм проходняк.pb.wtf



    Дорогой пользователь! Огромная просьба, поблагодарите релизера, оцените раздачу и оставьте свои комментарий, если Вы скачали Веном 2 через торрент бесплатно!
    Комментировать посты могут только пользователи прошедшие не сложную регистрацию
    Показать сообщения:    

    Веном 2 через торрент
    Скачать бесплатно Веном 2
    Веном 2 скачать торрент
    Веном 2 смотреть онлайн
    Cкачать фильм Веном 2 бесплатно
    Веном 2 скачать торрент в хорошем качестве
    Веном 2 смотреть онлайн бесплатно в хорошем качестве


    Вы не можете начинать темы
    Вы не можете отвечать на сообщения
    Вы не можете редактировать свои сообщения
    Вы не можете удалять свои сообщения
    Вы не можете голосовать в опросах
    Вы не можете прикреплять файлы к сообщениям
    Вы можете скачивать файлы