Присоединяйтесь к нам в Telegram!, здесь всегда актуальный адрес сайта, оперативная поддержка и многое другое!!

>

5.9

iTunes

7.4

iTunes

9.4

1 сезон

1

7.4

2 сезон

7.2

iTunes

7.3

1 сезон

13

6.1

iTunes

8.3

GOG

30

ULTIMATE

pack

9.9

Лицензия

ВАЖНО

ИГРА 18+

pack

7.3

RePack

MK11

7.7

RePack

jed

7.8

RePack

fifa19

8.5

RePack

RDR2

RePack

NEED FOR SPEED™ PAYBACK

5 сезон

9 сезон

Бесстыжие 9 сезон

Все сериалы

все сериалы на PB.wtf

RePack

FAR CRY 5

Anonymous, доброй ночи, мы катастрофически не успеваем собрать деньги на оплату серверов, помогите нам пожалуйста 5,10,15р., для нас важна любая помощь . В качестве благодарности мы отключим Вам всю рекламу на сайте (укажите свой ник в строку Ваше имя)!

×
  
Magnet ссылка

Финч / Finch (Мигель Сапочник) [2021, фантастика, драма, WEB-DLRip-AVC] Dub [Apple TV+] pb.wtf

Финч через торрент pb.wtf

Раздают: 92 [ 821 KB/s ]
Размер: 2.17 GB | Добавлен: 19 д. назад | Торрент скачан:160 раз
Смотреть онлайн Финч | Скачать    Ребята, помогите собрать деньги на оплату серверов!!!

07-11-2021 08:49 Финч Скачать торрент  

Финч
Finch

Страна: Великобритания, США
Жанр: фантастика, драма
Год выпуска: 2021
Продолжительность: 01:55:39

Перевод: Профессиональный (полное дублирование) [Невафильм / Apple TV+]
Субтитры: русские (форсированные, полные, SDH), украинские (полные), английские (полные, SDH)
Оригинальная аудиодорожка: английский

Режиссер: Мигель Сапочник / Miguel Sapochnik

В ролях: Том Хэнкс, Калеб Лэндри Джонс, Лора Каннингэм, Мари Уэйдженман, Оскар Авила

Описание: Постапокалипсис. Инженер-робототехник Финч переживает, что никто не сможет позаботиться о его собаке после смерти. Он строит робота и отправляется в путешествие, обучая своего нового компаньона жизни, любви, дружбе и дает ему понять, что значит быть человеком.



Релиз:

Автор рипа: stalkerok
За звук спасибо EniaHD

Сэмпл

Качество видео: WEB-DLRip-AVC | Исходник: Finch.2021.2160p.ATVP.WEB-DL.DDP5.1.Atmos.HEVC-TEPES
Формат видео: MKV
Видео кодек: AVC
Аудио кодек: AC3
Видео: AVC, 1792 Кбит/сек, 1132x474 (2.40:1), 23,976 кадр/сек
Аудио №1: AC3, 448 Кбит/сек, 48 КГц, 5.1 - русский
Аудио №2: AC3, 448 Кбит/сек, 48 КГц, 5.1 - английский
---[Information] [06.11.2021 21:16:51] x264 [info]: frame I:1227 Avg QP:14.40 size: 66501
---[Information] [06.11.2021 21:16:51] x264 [info]: frame P:39488 Avg QP:16.45 size: 19563
---[Information] [06.11.2021 21:16:51] x264 [info]: frame B:125671 Avg QP:19.50 size: 5580
---[Information] [06.11.2021 21:16:51] x264 [info]: consecutive B-frames: 2.9% 4.0% 11.6% 26.6% 17.3% 24.7% 4.4% 4.0% 1.2% 0.9% 0.5% 0.6% 0.4% 1.0%

General
Unique ID : 98361345773762354819514730633008523453 (0x49FFB4C440E8E790C341964AF7A828BD)
Complete name : J:\Finch.2021\Finch.2021.ATVP.WEB-DLRip.x264.Rus.Eng.stalkerok.New-Team.mkv
Format : Matroska
Format version : Version 4
File size : 2.17 GiB
Duration : 1 h 55 min
Overall bit rate : 2 691 kb/s
Movie name : Finch (2021) | Rip by stalkerok
Encoded date : UTC 2021-11-07 08:36:11
Writing application : mkvmerge v62.0.0 ('Apollo') 64-bit
Writing library : libebml v1.4.2 + libmatroska v1.6.4

Video
ID : 1
Format : AVC
Format/Info : Advanced Video Codec
Format profile : High@L4.1
Format settings : CABAC / 12 Ref Frames
Format settings, CABAC : Yes
Format settings, Reference frames : 12 frames
Codec ID : V_MPEG4/ISO/AVC
Duration : 1 h 55 min
Bit rate : 1 793 kb/s
Width : 1 132 pixels
Height : 474 pixels
Display aspect ratio : 2.40:1
Frame rate mode : Constant
Frame rate : 23.976 (24000/1001) FPS
Color space : YUV
Chroma subsampling : 4:2:0
Bit depth : 8 bits
Scan type : Progressive
Bits/(Pixel*Frame) : 0.139
Stream size : 1.45 GiB (67%)
Writing library : x264 core 164 r3065+55M 280faca t_mod_New [(8 & 10)-bit@all X86_64]
Encoding settings : cabac=1 / ref=12 / deblock=1:-3:-2 / analyse=0x3:0x133 / me=umh / subme=10 / psy=1 / fade_compensate=0.00 / psy_rd=1.00:0.00 / mixed_ref=1 / me_range=32 / chroma_me=1 / trellis=2 / 8x8dct=1 / cqm=0 / deadzone=21,11 / fast_pskip=0 / chroma_qp_offset=-2 / threads=12 / lookahead_threads=3 / sliced_threads=0 / nr=0 / decimate=1 / interlaced=0 / bluray_compat=0 / constrained_intra=0 / fgo=0 / bframes=13 / b_pyramid=2 / b_adapt=2 / b_bias=0 / direct=3 / weightb=1 / open_gop=0 / weightp=2 / keyint=240 / keyint_min=23 / scenecut=40 / intra_refresh=0 / rc_lookahead=60 / rc=crf / mbtree=0 / crf=17.7000 / qcomp=0.65 / qpmin=0:0:0 / qpmax=69:69:69 / qpstep=4 / vbv_maxrate=50000 / vbv_bufsize=62500 / crf_max=0.0 / nal_hrd=none / filler=0 / ip_ratio=1.40 / pb_ratio=1.30 / aq=3:0.80 / aq-sensitivity=10.00 / aq-factor=1.00:1.00:1.00 / aq2=0 / aq3=0
Default : Yes
Forced : No

Audio #1
ID : 2
Format : AC-3
Format/Info : Audio Coding 3
Commercial name : Dolby Digital
Codec ID : A_AC3
Duration : 1 h 55 min
Bit rate mode : Constant
Bit rate : 448 kb/s
Channel(s) : 6 channels
Channel layout : L R C LFE Ls Rs
Sampling rate : 48.0 kHz
Frame rate : 31.250 FPS (1536 SPF)
Compression mode : Lossy
Stream size : 371 MiB (17%)
Language : Russian
Service kind : Complete Main
Default : Yes
Forced : No

Audio #2
ID : 3
Format : AC-3
Format/Info : Audio Coding 3
Commercial name : Dolby Digital
Codec ID : A_AC3
Duration : 1 h 55 min
Bit rate mode : Constant
Bit rate : 448 kb/s
Channel(s) : 6 channels
Channel layout : L R C LFE Ls Rs
Sampling rate : 48.0 kHz
Frame rate : 31.250 FPS (1536 SPF)
Compression mode : Lossy
Stream size : 371 MiB (17%)
Language : English
Service kind : Complete Main
Default : No
Forced : No

Text #1
ID : 4
Format : UTF-8
Codec ID : S_TEXT/UTF8
Codec ID/Info : UTF-8 Plain Text
Duration : 1 h 46 min
Bit rate : 2 b/s
Count of elements : 51
Stream size : 1.94 KiB (0%)
Title : Forced
Language : Russian
Default : Yes
Forced : No

Text #2
ID : 5
Format : UTF-8
Codec ID : S_TEXT/UTF8
Codec ID/Info : UTF-8 Plain Text
Duration : 1 h 53 min
Bit rate : 54 b/s
Count of elements : 1038
Stream size : 45.2 KiB (0%)
Language : Russian
Default : No
Forced : No

Text #3
ID : 6
Format : UTF-8
Codec ID : S_TEXT/UTF8
Codec ID/Info : UTF-8 Plain Text
Duration : 1 h 48 min
Bit rate : 67 b/s
Count of elements : 1262
Stream size : 53.4 KiB (0%)
Title : SDH
Language : Russian
Default : No
Forced : No

Text #4
ID : 7
Format : UTF-8
Codec ID : S_TEXT/UTF8
Codec ID/Info : UTF-8 Plain Text
Duration : 1 h 53 min
Bit rate : 52 b/s
Count of elements : 1030
Stream size : 43.4 KiB (0%)
Language : Ukrainian
Default : No
Forced : No

Text #5
ID : 8
Format : UTF-8
Codec ID : S_TEXT/UTF8
Codec ID/Info : UTF-8 Plain Text
Duration : 1 h 45 min
Bit rate : 35 b/s
Count of elements : 986
Stream size : 27.5 KiB (0%)
Language : English
Default : No
Forced : No

Text #6
ID : 9
Format : UTF-8
Codec ID : S_TEXT/UTF8
Codec ID/Info : UTF-8 Plain Text
Duration : 1 h 47 min
Bit rate : 41 b/s
Count of elements : 1210
Stream size : 32.6 KiB (0%)
Title : SDH
Language : English
Default : No
Forced : No
pb.wtf



Скачать Финч через торрент http://i6.imageban.ru/out/2017/09/18/2ff75c0c358795c5946784cc1680714d.png Скачать, смотреть онлайн Финч бесплантно в хорошем качестве Описание: Постапокалипсис. Инженер-робототехник Финч переживает, что никто не сможет позаботиться о его собаке после смерти. Он строит ... 10 10 6
Info! Золотая раздача, скачанное не засчитывается.
Торрент: Зарегистрирован [2021-11-07 08:49] · скачан: 160 раз
Статус: √ проверено
Размер: 2.17 GB
Как cкачать? Как скачать Финч через торрент | UTorrent

% Раздел Тема Автор DL S | L
Фильмы (WEB-DL 720p, 1080p) [ 6.56 GB ] Финч / Finch [2021 WEB-DL-HEVC 1080p] DUB [Невафильм / Apple TV bober100 Скачать
50 | 0
Фильмы 2021 [DVDrip, WEB-DLRip, HDrip] (DUB, MVO) [ 2.18 GB ] Финч / Finch [2021 WEB-DLRip] - [Невафильм / Apple TV Twi7ter Скачать
159 | 2
Фильмы (WEB-DL 720p, 1080p) [ 2.89 GB ] Финч / Finch [2021 WEB-DL 720p] DUB [Невафильм / Apple TV bober100 Скачать
625 | 14
Фильмы (WEB-DL 720p, 1080p) [ 9.99 GB ] Финч / Finch [2021 WEB-DL 1080p] DUB [Невафильм / Apple TV bober100 Скачать
31 | 0
Фильмы 2021 [DVDrip, WEB-DLRip, HDrip] (DUB, MVO) [ 1.46 GB ] Финч / Finch [2021 WEB-DLRip] - [Невафильм / Apple TV Twi7ter Скачать
668 | 34
Ultra HD (UHD: 2K, 4K, 8K) — видео сверхвысокой чёткости [ 18.43 GB ] Финч / Finch [2021 HEVC SDR WEB-DL 2160p] Dub [Apple TV sokol_ok Скачать
142 | 6
Фильмы 2021 [DVDrip, WEB-DLRip, HDrip] (DUB, MVO) [ 2.14 GB ] Финч / Finch [2021 WEB-DLRip-AVC] DUB [Apple TV Lithuania Скачать
6 | 0

28-11-2019 20:33  

Отключить всю рекламу на сайте

    Дорогой пользователь! Огромная просьба, поблагодарите релизера, оцените раздачу и оставьте свои комментарий, если Вы скачали Финч через торрент бесплатно!
    Комментировать посты могут только пользователи прошедшие не сложную регистрацию
    Показать сообщения:    

    Финч через торрент
    Скачать бесплатно Финч
    Финч скачать торрент
    Финч смотреть онлайн
    Cкачать фильм Финч бесплатно
    Финч скачать торрент в хорошем качестве
    Финч смотреть онлайн бесплатно в хорошем качестве


    Вы не можете начинать темы
    Вы не можете отвечать на сообщения
    Вы не можете редактировать свои сообщения
    Вы не можете удалять свои сообщения
    Вы не можете голосовать в опросах
    Вы не можете прикреплять файлы к сообщениям
    Вы можете скачивать файлы