Присоединяйтесь к нам в Telegram!, здесь всегда актуальный адрес сайта, оперативная поддержка и многое другое!!

>

5.9

iTunes

7.4

iTunes

9.4

1 сезон

1

7.4

2 сезон

7.2

iTunes

7.3

1 сезон

13

6.1

iTunes

8.3

GOG

30

ULTIMATE

pack

9.9

Лицензия

ВАЖНО

ИГРА 18+

pack

7.3

RePack

MK11

7.7

RePack

jed

7.8

RePack

fifa19

8.5

RePack

RDR2

RePack

NEED FOR SPEED™ PAYBACK

5 сезон

9 сезон

Бесстыжие 9 сезон

Все сериалы

все сериалы на PB.wtf

RePack

FAR CRY 5

Anonymous, доброй ночи, мы катастрофически не успеваем собрать деньги на оплату серверов, помогите нам пожалуйста 5,10,15р., для нас важна любая помощь . В качестве благодарности мы отключим Вам всю рекламу на сайте (укажите свой ник в строку Ваше имя)!

×
  
Magnet ссылка

Зона 414 / Zone 414 (Эндрю Бейрд) [2021, Фантастика, триллер, HDRip-AVC] DUB [iTunes] от ExKinoRay pb.wtf

Зона 414 через торрент pb.wtf

Раздают: 7 [ 0 KB/s ]
Размер: 1.81 GB | Добавлен: 18 д. назад | Торрент скачан:167 раз
Смотреть онлайн Зона 414 | Скачать    Ребята, помогите собрать деньги на оплату серверов!!!

08-11-2021 17:56 Зона 414 Скачать торрент  


Зона 414 / Zone 414
Информация о фильме:
Название: Зона 414
Оригинальное название: Zone 414
Год выхода: 2021
Жанр: Фантастика, триллер
Режиссер: Эндрю Бейрд

В ролях: Трэвис Фиммел, Гай Пирс, Матильда Анна Ингрид Лутс, Нед Деннехи, Йоуханнес Хёйкьюр Йоуханнессон, Колин Сэлмон, Джонатан Арис, Антония Кэмпбелл-Хьюз, Олуэн Фуэре, Мэгги Кронин

Описание: В недалёком будущем высокотехнологичные колонии населены человекоподобными роботами. Когда дочь создателя Города роботов пропадает без следа, он посылает на её поиски частного детектива Дэвида Кармайкла. Тот объединяется с продвинутым искусственным интеллектом и начинает расследование. В ходе поисков Кармайкл узнаёт историю создания Зоны 414 и истинную причину существования колонии.



Страна: Великобритания, США
Студия: 23ten, Baird Films, El Ride Productions
Продолжительность: 01:38:30
Перевод: Дублированный - iTunes



Информация о файле:
Кодек: AVC
Формат: MKV
Качество: HDRip-AVC
Видео: MPEG-4 AVC, 1024x426, 23.976 fps, 1800 kbps
Аудио RU: AC3, 6 ch, 48 kHz, 384 kbps
Аудио EN: AC3, 6 ch, 48 kHz, 448 kbps
Субтитры: Русские, английские

x264 info: frame I:900 Avg QP:10.54 size: 67359
x264 info: frame P:26940 Avg QP:13.32 size: 22931
x264 info: frame B:113867 Avg QP:15.07 size: 5720
x264 info: consecutive B-frames: 1.4% 1.7% 4.5% 7.7% 10.5% 58.9% 9.1% 2.8% 2.5% 0.6% 0.3%
General
Unique ID : 104085252409036833403553953659037923827 (0x4E4E1726F803965A2CE5D5B73207B9F3)
Complete name : D:uTorrentРипы wolf1245Zone 414.2021.DUB.iTunes.HDRip-AVC.[wolf1245.ExKinoRay].mkv
Format : Matroska
Format version : Version 4
File size : 1.81 GiB
Duration : 1 h 38 min
Overall bit rate : 2 634 kb/s
Movie name : Zone 414.2021.DUB.iTunes.HDRip-AVC.[wolf1245.ExKinoRay]
Encoded date : UTC 2021-11-08 17:40:50
Writing application : mkvmerge v62.0.0 ('Apollo') 64-bit
Writing library : libebml v1.4.2 + libmatroska v1.6.4
Video
ID : 1
Format : AVC
Format/Info : Advanced Video Codec
Format profile : High@L4.1
Format settings : CABAC / 12 Ref Frames
Format settings, CABAC : Yes
Format settings, Reference frames : 12 frames
Codec ID : V_MPEG4/ISO/AVC
Duration : 1 h 38 min
Bit rate : 1 800 kb/s
Width : 1 024 pixels
Height : 426 pixels
Display aspect ratio : 2.40:1
Frame rate mode : Constant
Frame rate : 23.976 (24000/1001) FPS
Color space : YUV
Chroma subsampling : 4:2:0
Bit depth : 8 bits
Scan type : Progressive
Bits/(Pixel*Frame) : 0.172
Stream size : 1.24 GiB (68%)
Title : -=[wolf1245.ExKinoRay]=-
Writing library : x264 core 161 r3020 d198931
Encoding settings : cabac=1 / ref=12 / deblock=1:-3:-3 / analyse=0x3:0x133 / me=umh / subme=10 / psy=1 / psy_rd=1.05:0.10 / mixed_ref=1 / me_range=48 / chroma_me=1 / trellis=2 / 8x8dct=1 / cqm=0 / deadzone=21,11 / fast_pskip=1 / chroma_qp_offset=-3 / threads=10 / lookahead_threads=2 / sliced_threads=0 / nr=0 / decimate=0 / interlaced=0 / bluray_compat=0 / constrained_intra=0 / bframes=10 / b_pyramid=2 / b_adapt=2 / b_bias=0 / direct=3 / weightb=1 / open_gop=0 / weightp=2 / keyint=240 / keyint_min=24 / scenecut=40 / intra_refresh=0 / rc_lookahead=60 / rc=2pass / mbtree=0 / bitrate=1800 / ratetol=1.0 / qcomp=0.60 / qpmin=0 / qpmax=69 / qpstep=4 / cplxblur=20.0 / qblur=0.5 / vbv_maxrate=50000 / vbv_bufsize=62500 / nal_hrd=none / filler=0 / ip_ratio=1.40 / pb_ratio=1.30 / aq=3:0.80
Language : English
Default : Yes
Forced : No
Color range : Limited
Color primaries : BT.709
Matrix coefficients : BT.709
Audio #1
ID : 2
Format : AC-3
Format/Info : Audio Coding 3
Commercial name : Dolby Digital
Codec ID : A_AC3
Duration : 1 h 38 min
Bit rate mode : Constant
Bit rate : 384 kb/s
Channel(s) : 6 channels
Channel layout : L R C LFE Ls Rs
Sampling rate : 48.0 kHz
Frame rate : 31.250 FPS (1536 SPF)
Compression mode : Lossy
Stream size : 271 MiB (15%)
Title : Dub (iTunes)
Language : Russian
Service kind : Complete Main
Default : Yes
Forced : No
Audio #2
ID : 3
Format : AC-3
Format/Info : Audio Coding 3
Commercial name : Dolby Digital
Codec ID : A_AC3
Duration : 1 h 38 min
Bit rate mode : Constant
Bit rate : 448 kb/s
Channel(s) : 6 channels
Channel layout : L R C LFE Ls Rs
Sampling rate : 48.0 kHz
Frame rate : 31.250 FPS (1536 SPF)
Compression mode : Lossy
Stream size : 316 MiB (17%)
Title : Original
Language : English
Service kind : Complete Main
Default : No
Forced : No
Text #1
ID : 4
Format : UTF-8
Codec ID : S_TEXT/UTF8
Codec ID/Info : UTF-8 Plain Text
Duration : 1 h 34 min
Bit rate : 75 b/s
Count of elements : 1112
Stream size : 51.9 KiB (0%)
Title : SRT
Language : Russian
Default : No
Forced : No
Text #2
ID : 5
Format : UTF-8
Codec ID : S_TEXT/UTF8
Codec ID/Info : UTF-8 Plain Text
Duration : 1 h 30 min
Bit rate : 41 b/s
Count of elements : 878
Stream size : 27.7 KiB (0%)
Title : SRT
Language : English
Default : No
Forced : No
Menu
00:00:00.000 : :Chapter 01
00:08:01.147 : :Chapter 02
00:18:41.912 : :Chapter 03
00:27:48.208 : :Chapter 04
00:34:56.553 : :Chapter 05
00:44:53.858 : :Chapter 06
00:56:28.427 : :Chapter 07
01:04:28.239 : :Chapter 08
01:13:41.375 : :Chapter 09
01:22:37.953 : :Chapter 10
01:33:26.100 : :Chapter 11
Релиз от:
Автор релиза:
pb.wtf



Скачать Зона 414 через торрент https://i116.fastpic.org/big/2021/1108/2f/2ea290cafe181c0d5944139627122f2f.jpg Скачать, смотреть онлайн Зона 414 бесплантно в хорошем качестве Описание: В недалёком будущем высокотехнологичные колонии населены человекоподобными роботами. Когда дочь создателя Города роботов ... 8.7 10 7
Info! Золотая раздача, скачанное не засчитывается.
Торрент: Зарегистрирован [2021-11-08 17:56] · скачан: 167 раз
Статус: √ проверено
Размер: 1.81 GB
Как cкачать? Как скачать Зона 414 через торрент | UTorrent

28-11-2019 20:33  

Отключить всю рекламу на сайте

    Дорогой пользователь! Огромная просьба, поблагодарите релизера, оцените раздачу и оставьте свои комментарий, если Вы скачали Зона 414 через торрент бесплатно!
    Комментировать посты могут только пользователи прошедшие не сложную регистрацию
    Показать сообщения:    

    Зона 414 через торрент
    Скачать бесплатно Зона 414
    Зона 414 скачать торрент
    Зона 414 смотреть онлайн
    Cкачать фильм Зона 414 бесплатно
    Зона 414 скачать торрент в хорошем качестве
    Зона 414 смотреть онлайн бесплатно в хорошем качестве


    Вы не можете начинать темы
    Вы не можете отвечать на сообщения
    Вы не можете редактировать свои сообщения
    Вы не можете удалять свои сообщения
    Вы не можете голосовать в опросах
    Вы не можете прикреплять файлы к сообщениям
    Вы можете скачивать файлы