Присоединяйтесь к нам в Telegram!, здесь всегда актуальный адрес сайта, оперативная поддержка и многое другое!!

>

5.9

iTunes

7.4

iTunes

9.4

1 сезон

1

7.4

2 сезон

7.2

iTunes

7.3

1 сезон

13

6.1

iTunes

8.3

GOG

30

ULTIMATE

pack

9.9

Лицензия

ВАЖНО

ИГРА 18+

pack

7.3

RePack

MK11

7.7

RePack

jed

7.8

RePack

fifa19

8.5

RePack

RDR2

RePack

NEED FOR SPEED™ PAYBACK

5 сезон

9 сезон

Бесстыжие 9 сезон

Все сериалы

все сериалы на PB.wtf

RePack

FAR CRY 5

Anonymous, добрый вечер, мы катастрофически не успеваем собрать деньги на оплату серверов, помогите нам пожалуйста 5,10,15р., для нас важна любая помощь . В качестве благодарности мы отключим Вам всю рекламу на сайте (укажите свой ник в строку Ваше имя)!

×
  
Magnet ссылка

Полярный / Сезон: 2 / Серии: 1-16 из 16 + Фильм о фильме (Михаил Старчак) [2021, Комедия, WEBRip 1080p] pb.wtf

Полярный через торрент pb.wtf

Раздают: 42 [ 15 MB/s ] Качают: 38 [ 1 MB/s ]
Размер: 13.5 GB | Добавлен: 21 ч. назад | Торрент скачан:58 раз
Смотреть онлайн Полярный | Скачать    Ребята, помогите собрать деньги на оплату серверов!!!

08-11-2021 18:01 Полярный Скачать торрент  

Полярный 2
Год выпуска: 2021
Страна: Россия
Жанр: Комедия
Продолжительность: ~ 00:25:00 (Серия)
Перевод: Не требуется
Субтитры: отсутствуют

Режиссер: Михаил Старчак



В ролях: Михаил Пореченков, Иван Охлобыстин, Владимир Епифанцев, Катерина Шпица, Игорь Жижикин, Ян Цапник, Филипп Дьячков (II), Светлана Листова, Карина Зверева, Виктор Бычков, Александр Баширов, Сергей Чирков, Вера Строкова, Игорь Филиппов, Юрий Тузов, Александр Потапов (III), Юрий Назаров, Антон Богданов, Сергей Черданцев, Александр Мосолов (I)

Описание: Витя Мясник закрепился и обжился в Полярном: он заставил местного мэра быть самым честным чиновником страны, приструнил местных хулиганов, построил себе новую ферму и готовится сделать предложение Полине. Но мечты о спокойной семейной жизни придётся отложить: в городок приезжает кризис-менеджер Раиса Борисовна с поручением организовать неподалеку от дома Мясника строительство мусорного полигона. На стороне Раисы – административный ресурс, на стороне Вити – правда и справедливость.

Качество: WEBRip 1080p
Формат: MKV

Видео: MPEG-4 AVC, 1920x928, ~ 4500 Кбит/с, 0.101 bit/pixel, 25 Кадр/с
Аудио: 48.0 kHz, AC3 Dolby Digital, 2/0 (L,R) ch, ~ 192 kbps
скриншот  скриншот  скриншот  скриншот  

Общее
Уникальный идентификатор : 195322229236855012367412364600673926022 (0x92F1B1690C949ED0A09F3858A3F97B86)
Полное имя : D:\Polyarnyy.S02.2021.WEB-DL.(1080p).Getty\Polyarnyy.s02e01.2021.WEB-DL.(1080p).Getty.mkv
Формат : Matroska
Версия формата : Version 4
Размер файла : 881 Мбайт
Продолжительность : 26 м. 29 с.
Режим общего битрейта : Переменный
Общий поток : 4 651 Кбит/сек
Название фильма : Polyarnyy.s02e01.2021.WEB-DL.(1080p).Getty
Дата кодирования : UTC 2021-11-08 17:30:37
Программа кодирования : mkvmerge v7.8.0 ('River Man') 32bit built on Mar 27 2015 16:18:02
Библиотека кодирования : libebml v1.3.1 + libmatroska v1.4.2

Видео
Идентификатор : 1
Формат : AVC
Формат/Информация : Advanced Video Codec
Профиль формата : High@L4
Настройки формата : CABAC / 1 Ref Frames
Параметр CABAC формата : Да
Параметр RefFrames формата : 1 кадр
Параметр GOP формата : M=1, N=50
Идентификатор кодека : V_MPEG4/ISO/AVC
Продолжительность : 26 м. 29 с.
Вид битрейта : Переменный
Битрейт : 4 500 Кбит/сек
Ширина : 1 920 пикселей
Высота : 928 пикселей
Соотношение сторон : 2,069
Режим частоты кадров : Постоянный
Частота кадров : 25,000 кадров/сек
Цветовое пространство : YUV
Субдискретизация насыщенности : 4:2:0
Битовая глубина : 8 бит
Тип развёртки : Прогрессивная
Бит/(Пиксели*Кадры) : 0.101
Размер потока : 845 Мбайт (96%)
Default : Да
Forced : Нет

Аудио
Идентификатор : 2
Формат : AC-3
Формат/Информация : Audio Coding 3
Коммерческое название : Dolby Digital
Идентификатор кодека : A_AC3
Продолжительность : 26 м. 29 с.
Вид битрейта : Постоянный
Битрейт : 192 Кбит/сек
Каналы : 2 канала
Channel layout : L R
Частота : 48,0 КГц
Частота кадров : 31,250 кадров/сек (1536 SPF)
Метод сжатия : С потерями
Размер потока : 36,4 Мбайт (4%)
Service kind : Complete Main
Default : Да
Forced : Нет

Внимание! Раздача ведётся путём добавления новых серий; при каждом добавлении создfётся новый торрент. Чтобы начать докачку новой серии, пользователям необходимо сделать следующее: (1) остановить скачивание, (2) удалить старый торрент у себя из клиента (старые серии удалять не надо), (3) скачать новый торрент и запустить его у себя в клиенте вместо старого, при этом указать клиенту путь в старую папку куда и должно происходить скачивание новых серий.

Ваш клиент при этом должен произвести хеширование (проверку) старой папки (если не производит сам - помогите ему сделать это), и будет докачивать только те серии которых у вас ещё нет. Старые серии при этом не удаляются, а продолжают раздаваться!

Eсли вы уже удалили старые серии, то предотвратить повторную закачку старых серий можно, отжав галочку в соответсвующих местах при запуске нового торрента.
pb.wtf



Скачать Полярный через торрент https://a.radikal.ru/a30/2111/6e/c720ebb9d0ae.jpg Скачать, смотреть онлайн Полярный бесплантно в хорошем качестве Описание: Витя Мясник закрепился и обжился в Полярном: он заставил местного мэра быть самым честным чиновником страны, приструнил местных ... 9.4 10 22
Info! Золотая раздача, скачанное не засчитывается.
Торрент: Зарегистрирован [2021-12-01 18:28] · скачан: 58 раз
Статус: √ проверено
Размер: 13.5 GB
Как cкачать? Как скачать Полярный через торрент | UTorrent

% Раздел Тема Автор DL S | L
TNT serials [ 5.2 GB ] Полярный / Сезон: 2 / Серии: 1-16 из 16 + Фильм о фильме [2021 WEBRip-AVC] bober100 Скачать
24 | 28


Последний раз редактировалось: bober100 (2021-12-01 18:34), всего редактировалось 13 раз(а)

28-11-2019 20:33  

Отключить всю рекламу на сайте

10-11-2021 19:14 Полярный Скачать торрент  

Сериал интересный показался, первый зашел! Вот только не люблю я когда делают серии короткие по 20-25мин ну блин сложно сделать 40-50pb.wtf



16-11-2021 18:36 Полярный Скачать торрент  

Ressident писал(а):

Сериал интересный показался

мне тоже понравился да и Ивана Охлобыстина уважаю еще с времен интерновpb.wtf



22-11-2021 18:58 Полярный Скачать торрент  

и с лотереями у него норм. лошары так и прут.pb.wtf



01-12-2021 08:18 Полярный Скачать торрент  

looney писал(а):

Ressident писал(а):

Сериал интересный показался

мне тоже понравился да и Ивана Охлобыстина уважаю еще с времен интернов

Его в "интернах" народ уважал только за Парфёна Семёновича из даунхауса))pb.wtf



    Дорогой пользователь! Огромная просьба, поблагодарите релизера, оцените раздачу и оставьте свои комментарий, если Вы скачали Полярный через торрент бесплатно!
    Комментировать посты могут только пользователи прошедшие не сложную регистрацию
    Показать сообщения:    

    Полярный через торрент
    Скачать бесплатно Полярный
    Полярный скачать торрент
    Полярный смотреть онлайн
    Cкачать фильм Полярный бесплатно
    Полярный скачать торрент в хорошем качестве
    Полярный смотреть онлайн бесплатно в хорошем качестве


    Вы не можете начинать темы
    Вы не можете отвечать на сообщения
    Вы не можете редактировать свои сообщения
    Вы не можете удалять свои сообщения
    Вы не можете голосовать в опросах
    Вы не можете прикреплять файлы к сообщениям
    Вы можете скачивать файлы