Присоединяйтесь к нам в Telegram!, здесь всегда актуальный адрес сайта, оперативная поддержка и многое другое!!

>

5.9

iTunes

7.4

iTunes

9.4

1 сезон

1

7.4

2 сезон

7.2

iTunes

7.3

1 сезон

13

6.1

iTunes

8.3

GOG

30

ULTIMATE

pack

9.9

Лицензия

ВАЖНО

ИГРА 18+

pack

7.3

RePack

MK11

7.7

RePack

jed

7.8

RePack

fifa19

8.5

RePack

RDR2

RePack

NEED FOR SPEED™ PAYBACK

5 сезон

9 сезон

Бесстыжие 9 сезон

Все сериалы

все сериалы на PB.wtf

RePack

FAR CRY 5

Anonymous, добрый вечер, мы катастрофически не успеваем собрать деньги на оплату серверов, помогите нам пожалуйста 5,10,15р., для нас важна любая помощь . В качестве благодарности мы отключим Вам всю рекламу на сайте (укажите свой ник в строку Ваше имя)!

×
  
Magnet ссылка

Любовная магия / Сезон: 1 / Серии: 1-18 из 20 (Каролина Кубринская) [2021, Мелодрама, мистика, WEBRip 1080p] pb.wtf

Любовная магия через торрент pb.wtf

Размер: 15.31 GB | Добавлен: 13 д. назад | Торрент скачан:1 раз
Смотреть онлайн Любовная магия | Скачать    Ребята, помогите собрать деньги на оплату серверов!!!

08-11-2021 18:36 Любовная магия Скачать торрент  

Любовная магия
Год выпуска: 2021
Страна: Россия
Жанр: Мелодрама, мистика
Продолжительность: ~ 00:25:00
Перевод: Не требуется
Субтитры: отсутствуют

Режиссер: Каролина Кубринская



В ролях: Евгения Игумнова, Владимир Колганов, Егор Губарев, Артём Осипов, Яна Чигир, Юлия Малёнкина, Александр Румянцев (II), Алиса Лисичкина, Павел Демьянов, Анастасия Кувшинова (II)

Описание: Гала красива, умна, и у неё есть сын Никита — подросток. А ещё Гала умеет гадать на картах, разбирается в травах и заговорах и может видеть будущее в своём стеклянном шаре. Она — современная ясновидящая, которая помогает людям в большом городе обрести любовь, и не теряет надежды встретить и своё женское счастье. Но иногда умение предсказывать события только запутывает их ещё больше.

Качество: WEBRip 1080p
Формат: MKV

Видео: MPEG-4 AVC, ~ 4500 Кбит/с, 1920x1072
Аудио: 48.0 kHz, AC3 Dolby Digital, 2/0 (L,R) ch, ~ 192 kbps
скриншот  скриншот  скриншот  скриншот  

Общее
Уникальный идентификатор : 26115884697504945383055090386619283442 (0x13A5BC87170661F12F8FBA48083737F2)
Полное имя : D:Lyubovnaya.magiya.2021.WEB-DL.1080pLyubovnaya.magiya.E01.2021.WEB-DL.1080p.mkv
Формат : Matroska
Версия формата : Version 4
Размер файла : 878 Мбайт
Продолжительность : 26 м. 19 с.
Режим общего битрейта : Переменный
Общий поток : 4 663 Кбит/сек
Название фильма : Lyubovnaya.magiya.E01.2021.WEB-DL.1080p
Дата кодирования : UTC 2021-11-08 17:30:57
Программа кодирования : mkvmerge v62.0.0 ('Apollo') 64-bit
Библиотека кодирования : libebml v1.4.2 + libmatroska v1.6.4
Attachments : poster.jpg

Видео
Идентификатор : 1
Формат : AVC
Формат/Информация : Advanced Video Codec
Профиль формата : High@L4
Настройки формата : CABAC / 1 Ref Frames
Параметр CABAC формата : Да
Параметр RefFrames формата : 1 кадр
Параметр GOP формата : M=1, N=50
Идентификатор кодека : V_MPEG4/ISO/AVC
Продолжительность : 26 м. 19 с.
Вид битрейта : Переменный
Битрейт : 4 500 Кбит/сек
Ширина : 1 920 пикселей
Высота : 1 072 пикселя
Соотношение сторон : 16:9
Режим частоты кадров : Постоянный
Частота кадров : 25,000 кадров/сек
Цветовое пространство : YUV
Субдискретизация насыщенности : 4:2:0
Битовая глубина : 8 бит
Тип развёртки : Прогрессивная
Бит/(Пиксели*Кадры) : 0.087
Размер потока : 841 Мбайт (96%)
Default : Да
Forced : Нет

Аудио
Идентификатор : 2
Формат : AC-3
Формат/Информация : Audio Coding 3
Коммерческое название : Dolby Digital
Идентификатор кодека : A_AC3
Продолжительность : 26 м. 19 с.
Вид битрейта : Постоянный
Битрейт : 192 Кбит/сек
Каналы : 2 канала
Channel layout : L R
Частота : 48,0 КГц
Частота кадров : 31,250 кадров/сек (1536 SPF)
Метод сжатия : С потерями
Размер потока : 36,2 Мбайт (4%)
Service kind : Complete Main
Default : Да
Forced : Нет

Внимание! Раздача ведётся путём добавления новых серий; при каждом добавлении создfётся новый торрент. Чтобы начать докачку новой серии, пользователям необходимо сделать следующее: (1) остановить скачивание, (2) удалить старый торрент у себя из клиента (старые серии удалять не надо), (3) скачать новый торрент и запустить его у себя в клиенте вместо старого, при этом указать клиенту путь в старую папку куда и должно происходить скачивание новых серий.

Ваш клиент при этом должен произвести хеширование (проверку) старой папки (если не производит сам - помогите ему сделать это), и будет докачивать только те серии которых у вас ещё нет. Старые серии при этом не удаляются, а продолжают раздаваться!

Eсли вы уже удалили старые серии, то предотвратить повторную закачку старых серий можно, отжав галочку в соответсвующих местах при запуске нового торрента.
pb.wtf



Скачать Любовная магия через торрент https://d.radikal.ru/d19/2111/c8/e378aec5c574.jpg Скачать, смотреть онлайн Любовная магия бесплантно в хорошем качестве Описание: Гала красива, умна, и у неё есть сын Никита — подросток. А ещё Гала умеет гадать на картах, разбирается в травах и заговорах и ... 9.5 10 4
Торрент: Зарегистрирован [2021-11-18 17:00] · скачан: 1 раз
Статус: √ проверено
Размер: 15.31 GB
Как cкачать? Как скачать Любовная магия через торрент | UTorrent

% Раздел Тема Автор DL S | L
Наши сериалы [ 5.9 GB ] Любовная магия / Сезон: 1 / Серии: 1-18 из 20 [2021 Мело WEBRip-AVC] bober100 Скачать
1 | 0

28-11-2019 20:33  

Отключить всю рекламу на сайте

    Дорогой пользователь! Огромная просьба, поблагодарите релизера, оцените раздачу и оставьте свои комментарий, если Вы скачали Любовная магия через торрент бесплатно!
    Комментировать посты могут только пользователи прошедшие не сложную регистрацию
    Показать сообщения:    

    Любовная магия через торрент
    Скачать бесплатно Любовная магия
    Любовная магия скачать торрент
    Любовная магия смотреть онлайн
    Cкачать фильм Любовная магия бесплатно
    Любовная магия скачать торрент в хорошем качестве
    Любовная магия смотреть онлайн бесплатно в хорошем качестве


    Вы не можете начинать темы
    Вы не можете отвечать на сообщения
    Вы не можете редактировать свои сообщения
    Вы не можете удалять свои сообщения
    Вы не можете голосовать в опросах
    Вы не можете прикреплять файлы к сообщениям
    Вы можете скачивать файлы