Присоединяйтесь к нам в Telegram!, здесь всегда актуальный адрес сайта, оперативная поддержка и многое другое!!

>

5.9

iTunes

7.4

iTunes

9.4

1 сезон

1

7.4

2 сезон

7.2

iTunes

7.3

1 сезон

13

6.1

iTunes

8.3

GOG

30

ULTIMATE

pack

9.9

Лицензия

ВАЖНО

ИГРА 18+

pack

7.3

RePack

MK11

7.7

RePack

jed

7.8

RePack

fifa19

8.5

RePack

RDR2

RePack

NEED FOR SPEED™ PAYBACK

5 сезон

9 сезон

Бесстыжие 9 сезон

Все сериалы

все сериалы на PB.wtf

RePack

FAR CRY 5

Anonymous, доброе утро, мы катастрофически не успеваем собрать деньги на оплату серверов, помогите нам пожалуйста 5,10,15р., для нас важна любая помощь . В качестве благодарности мы отключим Вам всю рекламу на сайте (укажите свой ник в строку Ваше имя)!

×
  
Magnet ссылка

Полярный / Сезон: 2 / Серии: 1-16 из 16 + Фильм о фильме (Михаил Старчак) [2021, Комедия, WEBRip-AVC] pb.wtf

Полярный через торрент pb.wtf

Раздают: 14 [ 6 MB/s ] Качают: 20 [ 4 MB/s ]
Размер: 5.2 GB | Добавлен: 5 ч. назад | Торрент скачан:11 раз
Смотреть онлайн Полярный | Скачать    Ребята, помогите собрать деньги на оплату серверов!!!

08-11-2021 20:02 Полярный Скачать торрент  

Полярный 2
Год выпуска: 2021
Страна: Россия
Жанр: Комедия
Продолжительность: ~ 00:25:00 (Серия)
Перевод: Не требуется
Субтитры: отсутствуют

Режиссер: Михаил Старчак



В ролях: Михаил Пореченков, Иван Охлобыстин, Владимир Епифанцев, Катерина Шпица, Игорь Жижикин, Ян Цапник, Филипп Дьячков (II), Светлана Листова, Карина Зверева, Виктор Бычков, Александр Баширов, Сергей Чирков, Вера Строкова, Игорь Филиппов, Юрий Тузов, Александр Потапов (III), Юрий Назаров, Антон Богданов, Сергей Черданцев, Александр Мосолов (I)

Описание: Витя Мясник закрепился и обжился в Полярном: он заставил местного мэра быть самым честным чиновником страны, приструнил местных хулиганов, построил себе новую ферму и готовится сделать предложение Полине. Но мечты о спокойной семейной жизни придётся отложить: в городок приезжает кризис-менеджер Раиса Борисовна с поручением организовать неподалеку от дома Мясника строительство мусорного полигона. На стороне Раисы – административный ресурс, на стороне Вити – правда и справедливость.

Качество: WEBRip-AVC
Формат: MKV

Видео: MPEG-4 AVC, ~ 1600 Кбит/с, 1024x496, 25 кадр/с
Аудио: 48.0 kHz, AC3 Dolby Digital, 2/0 (L,R) ch, ~ 192 kbps
скриншот  скриншот  скриншот  скриншот  скриншот  

General
Unique ID : 182567278423545170717467350130040576687 (0x89592DC855BF3F3C908DB677D9211AAF)
Complete name : F:\Полярный.S02.(2021).WEBRip.(AVC).Files-x\01.Полярный.s02.(2021).WEBRip.(AVC).by.Серый1779.Files-x.mkv
Format : Matroska
Format version : Version 2
File size : 340 MiB
Duration : 26 min 29 s
Overall bit rate : 1 792 kb/s
Encoded date : UTC 2021-11-08 19:02:31
Writing application : mkvmerge v7.8.0 ('River Man') 32bit built on Apr 3 2015 12:11:22
Writing library : libebml v1.3.1 + libmatroska v1.4.2

Video
ID : 1
Format : AVC
Format/Info : Advanced Video Codec
Format profile : High@L4.1
Format settings : CABAC / 9 Ref Frames
Format settings, CABAC : Yes
Format settings, RefFrames : 9 frames
Codec ID : V_MPEG4/ISO/AVC
Duration : 26 min 29 s
Bit rate : 1 600 kb/s
Width : 1 024 pixels
Height : 496 pixels
Display aspect ratio : 2.065
Frame rate mode : Constant
Frame rate : 25.000 FPS
Color space : YUV
Chroma subsampling : 4:2:0
Bit depth : 8 bits
Scan type : Progressive
Bits/(Pixel*Frame) : 0.126
Stream size : 296 MiB (87%)
Writing library : x264 core 146 r2538 121396c
Encoding settings : cabac=1 / ref=9 / deblock=1:-2:-1 / analyse=0x3:0x133 / me=umh / subme=9 / psy=1 / psy_rd=1.00:0.15 / mixed_ref=1 / me_range=32 / chroma_me=1 / trellis=2 / 8x8dct=1 / cqm=0 / deadzone=21,11 / fast_pskip=0 / chroma_qp_offset=-3 / threads=18 / lookahead_threads=3 / sliced_threads=0 / nr=0 / decimate=1 / interlaced=0 / bluray_compat=0 / constrained_intra=0 / bframes=9 / b_pyramid=2 / b_adapt=2 / b_bias=0 / direct=1 / weightb=1 / open_gop=0 / weightp=2 / keyint=250 / keyint_min=25 / scenecut=40 / intra_refresh=0 / rc=2pass / mbtree=0 / bitrate=1600 / ratetol=1.0 / qcomp=0.60 / qpmin=0 / qpmax=69 / qpstep=4 / cplxblur=20.0 / qblur=0.5 / ip_ratio=1.40 / pb_ratio=1.30 / aq=2:1.00
Default : Yes
Forced : No
Color range : Limited
Color primaries : BT.709
Transfer characteristics : BT.709
Matrix coefficients : BT.709

Audio
ID : 2
Format : AC-3
Format/Info : Audio Coding 3
Format settings, Endianness : Big
Codec ID : A_AC3
Duration : 26 min 29 s
Bit rate mode : Constant
Bit rate : 192 kb/s
Channel(s) : 2 channels
Channel positions : Front: L R
Sampling rate : 48.0 kHz
Frame rate : 31.250 FPS (1536 SPF)
Bit depth : 16 bits
Compression mode : Lossy
Stream size : 36.4 MiB (11%)
Service kind : Complete Main
Default : Yes
Forced : No

Внимание! Раздача ведётся путём добавления новых серий; при каждом добавлении создfётся новый торрент. Чтобы начать докачку новой серии, пользователям необходимо сделать следующее: (1) остановить скачивание, (2) удалить старый торрент у себя из клиента (старые серии удалять не надо), (3) скачать новый торрент и запустить его у себя в клиенте вместо старого, при этом указать клиенту путь в старую папку куда и должно происходить скачивание новых серий.

Ваш клиент при этом должен произвести хеширование (проверку) старой папки (если не производит сам - помогите ему сделать это), и будет докачивать только те серии которых у вас ещё нет. Старые серии при этом не удаляются, а продолжают раздаваться!

Eсли вы уже удалили старые серии, то предотвратить повторную закачку старых серий можно, отжав галочку в соответсвующих местах при запуске нового торрента.
pb.wtf



Скачать Полярный через торрент https://a.radikal.ru/a30/2111/6e/c720ebb9d0ae.jpg Скачать, смотреть онлайн Полярный бесплантно в хорошем качестве Описание: Витя Мясник закрепился и обжился в Полярном: он заставил местного мэра быть самым честным чиновником страны, приструнил местных ... 9.3 10 13
Торрент: Зарегистрирован [2021-12-02 04:01] · скачан: 11 раз
Статус: √ проверено
Размер: 5.2 GB
Как cкачать? Как скачать Полярный через торрент | UTorrent

% Раздел Тема Автор DL S | L
TNT serials [ 13.5 GB ] Полярный / Сезон: 2 / Серии: 1-16 из 16 + Фильм о фильме [2021 WEBRip 1080p] bober100 Скачать
35 | 28


Последний раз редактировалось: bober100 (2021-12-02 04:01), всего редактировалось 9 раз(а)

28-11-2019 20:33  

Отключить всю рекламу на сайте

16-11-2021 14:08 Полярный Скачать торрент  

сюжет фигня. судя по описаниюpb.wtf



    Дорогой пользователь! Огромная просьба, поблагодарите релизера, оцените раздачу и оставьте свои комментарий, если Вы скачали Полярный через торрент бесплатно!
    Комментировать посты могут только пользователи прошедшие не сложную регистрацию
    Показать сообщения:    

    Полярный через торрент
    Скачать бесплатно Полярный
    Полярный скачать торрент
    Полярный смотреть онлайн
    Cкачать фильм Полярный бесплатно
    Полярный скачать торрент в хорошем качестве
    Полярный смотреть онлайн бесплатно в хорошем качестве


    Вы не можете начинать темы
    Вы не можете отвечать на сообщения
    Вы не можете редактировать свои сообщения
    Вы не можете удалять свои сообщения
    Вы не можете голосовать в опросах
    Вы не можете прикреплять файлы к сообщениям
    Вы можете скачивать файлы