Присоединяйтесь к нам в Telegram!, здесь всегда актуальный адрес сайта, оперативная поддержка и многое другое!!

>

5.9

iTunes

7.4

iTunes

9.4

1 сезон

1

7.4

2 сезон

7.2

iTunes

7.3

1 сезон

13

6.1

iTunes

8.3

Пиратка

30

ULTIMATE

pack

9.9

Лицензия

ВАЖНО

ИГРА 18+

pack

7.3

RePack

MK11

7.7

RePack

jed

7.8

RePack

fifa19

8.5

RePack

RDR2

RePack

NEED FOR SPEED™ PAYBACK

5 сезон

9 сезон

Бесстыжие 9 сезон

Все сериалы

все сериалы на PB.wtf

RePack

FAR CRY 5

Anonymous, доброй ночи, мы катастрофически не успеваем собрать деньги на оплату серверов, помогите нам пожалуйста 5,10,15р., для нас важна любая помощь . В качестве благодарности мы отключим Вам всю рекламу на сайте (укажите свой ник в строку Ваше имя)!

×
  
Magnet ссылка

Полярный / Сезон: 2 / Серии: 1-16 из 16 + Фильм о фильме (Михаил Старчак) [2021, Комедия, WEBRip] pb.wtf

Полярный через торрент pb.wtf

Раздают: 12 [ 2 MB/s ] Качают: 6 [ 0 KB/s ]
Размер: 5.21 GB | Добавлен: 3 д. назад | Торрент скачан:74 раза
Смотреть онлайн Полярный | Скачать    Ребята, помогите собрать деньги на оплату серверов!!!

08-11-2021 20:05 Полярный Скачать торрент  

Полярный 2
Год выпуска: 2021
Страна: Россия
Жанр: Комедия
Продолжительность: ~ 00:25:00 (Серия)
Перевод: Не требуется
Субтитры: отсутствуют

Режиссер: Михаил Старчак



В ролях: Михаил Пореченков, Иван Охлобыстин, Владимир Епифанцев, Катерина Шпица, Игорь Жижикин, Ян Цапник, Филипп Дьячков (II), Светлана Листова, Карина Зверева, Виктор Бычков, Александр Баширов, Сергей Чирков, Вера Строкова, Игорь Филиппов, Юрий Тузов, Александр Потапов (III), Юрий Назаров, Антон Богданов, Сергей Черданцев, Александр Мосолов (I)

Описание: Витя Мясник закрепился и обжился в Полярном: он заставил местного мэра быть самым честным чиновником страны, приструнил местных хулиганов, построил себе новую ферму и готовится сделать предложение Полине. Но мечты о спокойной семейной жизни придётся отложить: в городок приезжает кризис-менеджер Раиса Борисовна с поручением организовать неподалеку от дома Мясника строительство мусорного полигона. На стороне Раисы – административный ресурс, на стороне Вити – правда и справедливость.

Качество: WEBRip
Формат: AVI

Видео: XviD, 720x352, ~ 1600 Кбит/с, 0.251 bit/pixel, 25 Кадр/с
Аудио: 48.0 kHz, AC3 Dolby Digital, 2/0 (L,R) ch, ~ 192 kbps
скриншот  скриншот  скриншот  скриншот  скриншот  

Общее
Полное имя : D:\Полярный .s02.2021.WEB-DLRip\01. Полярный .s02.2021.WEB-DLRip.avi
Формат : AVI
Формат/Информация : Audio Video Interleave
Размер файла : 340 Мбайт
Продолжительность : 26 м. 29 с.
Общий поток : 1 795 Кбит/сек
Программа кодирования : VirtualDubMod 1.5.10.3 | www.virtualdub-fr.org || (build 2550/release)
Библиотека кодирования : VirtualDubMod build 2550/release

Видео
Идентификатор : 0
Формат : MPEG-4 Visual
Профиль формата : Advanced Simple@L5
Настройки формата : BVOP1 / Custom Matrix
Параметр BVOP формата : 1
Параметр QPel формата : Нет
Параметр GMC формата : Без точки перехода
Параметр матрицы формата : Выборочная
Идентификатор кодека : XVID
Идентификатор кодека/Подсказка : XviD
Продолжительность : 26 м. 29 с.
Битрейт : 1 593 Кбит/сек
Ширина : 720 пикселей
Высота : 352 пикселя
Соотношение сторон : 2,045
Частота кадров : 25,000 кадров/сек
Цветовое пространство : YUV
Субдискретизация насыщенности : 4:2:0
Битовая глубина : 8 бит
Тип развёртки : Прогрессивная
Метод сжатия : С потерями
Бит/(Пиксели*Кадры) : 0.251
Размер потока : 302 Мбайт (89%)
Библиотека кодирования : XviD 73

Аудио
Идентификатор : 1
Формат : AC-3
Формат/Информация : Audio Coding 3
Коммерческое название : Dolby Digital
Идентификатор кодека : 2000
Продолжительность : 26 м. 29 с.
Вид битрейта : Постоянный
Битрейт : 192 Кбит/сек
Каналы : 2 канала
Channel layout : L R
Частота : 48,0 КГц
Частота кадров : 31,250 кадров/сек (1536 SPF)
Метод сжатия : С потерями
Размер потока : 36,4 Мбайт (11%)
Выравнивание : Разделение по промежуткам
Продолжительность промежутка : 40 мс. (1,00 видеокадр)
Время предзагрузки промежутка : 500 мс.
Service kind : Complete Main

Внимание! Раздача ведётся путём добавления новых серий; при каждом добавлении создfётся новый торрент. Чтобы начать докачку новой серии, пользователям необходимо сделать следующее: (1) остановить скачивание, (2) удалить старый торрент у себя из клиента (старые серии удалять не надо), (3) скачать новый торрент и запустить его у себя в клиенте вместо старого, при этом указать клиенту путь в старую папку куда и должно происходить скачивание новых серий.

Ваш клиент при этом должен произвести хеширование (проверку) старой папки (если не производит сам - помогите ему сделать это), и будет докачивать только те серии которых у вас ещё нет. Старые серии при этом не удаляются, а продолжают раздаваться!

Eсли вы уже удалили старые серии, то предотвратить повторную закачку старых серий можно, отжав галочку в соответсвующих местах при запуске нового торрента.
pb.wtf



Скачать Полярный через торрент https://a.radikal.ru/a30/2111/6e/c720ebb9d0ae.jpg Скачать, смотреть онлайн Полярный бесплантно в хорошем качестве Описание: Витя Мясник закрепился и обжился в Полярном: он заставил местного мэра быть самым честным чиновником страны, приструнил местных ... 9.4 10 14
Info! Золотая раздача, скачанное не засчитывается.
Торрент: Зарегистрирован [2021-12-02 16:32] · скачан: 74 раз
Статус: √ проверено
Размер: 5.21 GB
Как cкачать? Как скачать Полярный через торрент | UTorrent

% Раздел Тема Автор DL S | L
TNT serials [ 13.5 GB ] Полярный / Сезон: 2 / Серии: 1-16 из 16 + Фильм о фильме [2021 WEBRip 1080p] bober100 Скачать
23 | 11
TNT serials [ 5.2 GB ] Полярный / Сезон: 2 / Серии: 1-16 из 16 + Фильм о фильме [2021 WEBRip-AVC] bober100 Скачать
11 | 1

28-11-2019 20:33  

Отключить всю рекламу на сайте

    Дорогой пользователь! Огромная просьба, поблагодарите релизера, оцените раздачу и оставьте свои комментарий, если Вы скачали Полярный через торрент бесплатно!
    Комментировать посты могут только пользователи прошедшие не сложную регистрацию
    Показать сообщения:    

    Полярный через торрент
    Скачать бесплатно Полярный
    Полярный скачать торрент
    Полярный смотреть онлайн
    Cкачать фильм Полярный бесплатно
    Полярный скачать торрент в хорошем качестве
    Полярный смотреть онлайн бесплатно в хорошем качестве


    Вы не можете начинать темы
    Вы не можете отвечать на сообщения
    Вы не можете редактировать свои сообщения
    Вы не можете удалять свои сообщения
    Вы не можете голосовать в опросах
    Вы не можете прикреплять файлы к сообщениям
    Вы можете скачивать файлы