Присоединяйтесь к нам в Telegram!, здесь всегда актуальный адрес сайта, оперативная поддержка и многое другое!!

>

5.9

iTunes

7.4

iTunes

9.4

1 сезон

1

7.4

2 сезон

7.2

iTunes

7.3

1 сезон

13

6.1

iTunes

8.3

GOG

30

ULTIMATE

pack

9.9

Лицензия

ВАЖНО

ИГРА 18+

pack

7.3

RePack

MK11

7.7

RePack

jed

7.8

RePack

fifa19

8.5

RePack

RDR2

RePack

NEED FOR SPEED™ PAYBACK

5 сезон

9 сезон

Бесстыжие 9 сезон

Все сериалы

все сериалы на PB.wtf

RePack

FAR CRY 5

Anonymous, доброй ночи, мы катастрофически не успеваем собрать деньги на оплату серверов, помогите нам пожалуйста 5,10,15р., для нас важна любая помощь . В качестве благодарности мы отключим Вам всю рекламу на сайте (укажите свой ник в строку Ваше имя)!

×
  
Magnet ссылка

Принцесса якудза / Yakuza Princess (Висенте Аморим) [2021, Триллер, криминал, HDRip-AVC] DUB [iTunes] от ExKinoRay pb.wtf

Принцесса якудза через торрент pb.wtf

Раздают: 8 [ 0 KB/s ]
Размер: 2 GB | Добавлен: 17 д. назад | Торрент скачан:144 раза
Смотреть онлайн Принцесса якудза | Скачать    Ребята, помогите собрать деньги на оплату серверов!!!

09-11-2021 12:57 Принцесса якудза Скачать торрент  


Принцесса якудза / Yakuza Princess
Информация о фильме:
Название: Принцесса якудза
Оригинальное название: Yakuza Princess
Год выхода: 2021
Жанр: Триллер, криминал
Режиссер: Висенте Аморим

В ролях: MASUMI, Цуёси Ихара, Кенни Леу, Лукас Оранмиан, Эйдзиро Одзаки, Чарльз Паравенти, Джонатан Рис-Майерс, Марико Такаи, Тосидзи Такесима, Николаш Тревижану

Описание: Японская община в Сан-Паулу. 21-летняя сирота Акэми узнает, что она — наследница половины империи якудза, и что другая половина знаменитого преступного синдиката жаждет ее смерти. Посланники якудза начинают преследовать девушку, жизнь которой теперь висит на волоске. Спасение приходит от страдающего амнезией иностранца, который уверен — его судьбу с японской девушкой связывает древний самурайский меч.



Страна: Бразилия
Студия: Filmland International
Продолжительность: 01:51:15
Перевод: Дублированный - iTunes



Информация о файле:
Кодек: AVC
Формат: MKV
Качество: HDRip-AVC
Видео: MPEG-4 AVC, 1024x430, 23.976 fps, 1750 kbps
Аудио RU: AC3, 6 ch, 48 kHz, 384 kbps
Аудио EN: AC3, 6 ch, 48 kHz, 448 kbps
Субтитры: Английские

x264 info: frame I:1300 Avg QP:15.11 size: 56313
x264 info: frame P:37058 Avg QP:18.78 size: 19269
x264 info: frame B:121669 Avg QP:20.77 size: 5483
x264 info: consecutive B-frames: 2.8% 3.7% 9.7% 21.0% 19.2% 36.2% 5.1% 0.9% 0.7% 0.2% 0.6%
General
Unique ID : 55263001426295773968856448481723703883 (0x29934455493A2E2E062B71F443D0624B)
Complete name : D:uTorrentРипы wolf1245Yakuza Princess.2021.DUB.ITUNES.[wolf1245.ExKinoRay].mkv
Format : Matroska
Format version : Version 4
File size : 2.00 GiB
Duration : 1 h 51 min
Overall bit rate : 2 577 kb/s
Movie name : Yakuza Princess.2021.DUB.ITUNES.[wolf1245.ExKinoRay]
Encoded date : UTC 2021-11-09 12:45:32
Writing application : mkvmerge v62.0.0 ('Apollo') 64-bit
Writing library : libebml v1.4.2 + libmatroska v1.6.4
Video
ID : 1
Format : AVC
Format/Info : Advanced Video Codec
Format profile : High@L4.1
Format settings : CABAC / 12 Ref Frames
Format settings, CABAC : Yes
Format settings, Reference frames : 12 frames
Codec ID : V_MPEG4/ISO/AVC
Duration : 1 h 51 min
Bit rate : 1 750 kb/s
Width : 1 024 pixels
Height : 430 pixels
Display aspect ratio : 2.40:1
Frame rate mode : Constant
Frame rate : 23.976 (24000/1001) FPS
Color space : YUV
Chroma subsampling : 4:2:0
Bit depth : 8 bits
Scan type : Progressive
Bits/(Pixel*Frame) : 0.166
Stream size : 1.35 GiB (68%)
Title : -=[wolf1245.ExKinoRay]=-
Writing library : x264 core 161 r3020 d198931
Encoding settings : cabac=1 / ref=12 / deblock=1:-3:-3 / analyse=0x3:0x133 / me=umh / subme=11 / psy=1 / psy_rd=1.02:0.05 / mixed_ref=1 / me_range=48 / chroma_me=1 / trellis=2 / 8x8dct=1 / cqm=0 / deadzone=21,11 / fast_pskip=1 / chroma_qp_offset=-3 / threads=10 / lookahead_threads=2 / sliced_threads=0 / nr=0 / decimate=0 / interlaced=0 / bluray_compat=0 / constrained_intra=0 / bframes=10 / b_pyramid=2 / b_adapt=2 / b_bias=0 / direct=3 / weightb=1 / open_gop=0 / weightp=2 / keyint=240 / keyint_min=24 / scenecut=40 / intra_refresh=0 / rc_lookahead=60 / rc=2pass / mbtree=0 / bitrate=1750 / ratetol=1.0 / qcomp=0.60 / qpmin=0 / qpmax=69 / qpstep=4 / cplxblur=20.0 / qblur=0.5 / vbv_maxrate=50000 / vbv_bufsize=62500 / nal_hrd=none / filler=0 / ip_ratio=1.40 / pb_ratio=1.30 / aq=1:0.80
Language : English
Default : Yes
Forced : No
Color range : Limited
Color primaries : BT.709
Matrix coefficients : BT.709
Audio #1
ID : 2
Format : AC-3
Format/Info : Audio Coding 3
Commercial name : Dolby Digital
Codec ID : A_AC3
Duration : 1 h 51 min
Bit rate mode : Constant
Bit rate : 384 kb/s
Channel(s) : 6 channels
Channel layout : L R C LFE Ls Rs
Sampling rate : 48.0 kHz
Frame rate : 31.250 FPS (1536 SPF)
Compression mode : Lossy
Stream size : 306 MiB (15%)
Title : DUB (iTunes)
Language : Russian
Service kind : Complete Main
Default : Yes
Forced : No
Audio #2
ID : 3
Format : AC-3
Format/Info : Audio Coding 3
Commercial name : Dolby Digital
Codec ID : A_AC3
Duration : 1 h 51 min
Bit rate mode : Constant
Bit rate : 448 kb/s
Channel(s) : 6 channels
Channel layout : L R C LFE Ls Rs
Sampling rate : 48.0 kHz
Frame rate : 31.250 FPS (1536 SPF)
Compression mode : Lossy
Stream size : 356 MiB (17%)
Title : Original
Language : English
Service kind : Complete Main
Default : No
Forced : No
Text
ID : 4
Format : UTF-8
Codec ID : S_TEXT/UTF8
Codec ID/Info : UTF-8 Plain Text
Duration : 1 h 44 min
Bit rate : 19 b/s
Count of elements : 677
Stream size : 14.6 KiB (0%)
Language : English
Default : No
Forced : No
Menu
00:00:00.000 : :Chapter 01
00:07:52.263 : :Chapter 02
00:13:39.819 : :Chapter 03
00:20:18.217 : :Chapter 04
00:30:24.823 : :Chapter 05
00:39:51.389 : :Chapter 06
00:45:36.734 : :Chapter 07
00:53:15.192 : :Chapter 08
01:02:26.743 : :Chapter 09
01:12:37.353 : :Chapter 10
01:19:56.792 : :Chapter 11
01:27:04.219 : :Chapter 12
01:34:23.658 : :Chapter 13
01:43:29.662 : :Chapter 14
Релиз от:
Автор релиза:
pb.wtf



Скачать Принцесса якудза через торрент https://i116.fastpic.org/big/2021/1109/00/a685c268e508578c3dfcd6521f3bf300.png Скачать, смотреть онлайн Принцесса якудза бесплантно в хорошем качестве Описание: Японская община в Сан-Паулу. 21-летняя сирота Акэми узнает, что она — наследница половины империи якудза, и что другая половина ... 8.5 10 6
Торрент: Зарегистрирован [2021-11-09 12:57] · скачан: 144 раз
Статус: √ проверено
Размер: 2 GB
Как cкачать? Как скачать Принцесса якудза через торрент | UTorrent



Последний раз редактировалось: Lithuania (2021-11-09 15:12), всего редактировалось 1 раз

28-11-2019 20:33  

Отключить всю рекламу на сайте

09-11-2021 14:22 Принцесса якудза Скачать торрент  

если вас не смущает полностью голый главный герой в начале то фильм достоин просмотраpb.wtf



    Дорогой пользователь! Огромная просьба, поблагодарите релизера, оцените раздачу и оставьте свои комментарий, если Вы скачали Принцесса якудза через торрент бесплатно!
    Комментировать посты могут только пользователи прошедшие не сложную регистрацию
    Показать сообщения:    

    Принцесса якудза через торрент
    Скачать бесплатно Принцесса якудза
    Принцесса якудза скачать торрент
    Принцесса якудза смотреть онлайн
    Cкачать фильм Принцесса якудза бесплатно
    Принцесса якудза скачать торрент в хорошем качестве
    Принцесса якудза смотреть онлайн бесплатно в хорошем качестве


    Вы не можете начинать темы
    Вы не можете отвечать на сообщения
    Вы не можете редактировать свои сообщения
    Вы не можете удалять свои сообщения
    Вы не можете голосовать в опросах
    Вы не можете прикреплять файлы к сообщениям
    Вы можете скачивать файлы