Присоединяйтесь к нам в Telegram!, здесь всегда актуальный адрес сайта, оперативная поддержка и многое другое!!

>

5.9

iTunes

7.4

iTunes

9.4

1 сезон

1

7.4

2 сезон

7.2

iTunes

7.3

1 сезон

13

6.1

iTunes

8.3

GOG

30

ULTIMATE

pack

9.9

Лицензия

ВАЖНО

ИГРА 18+

pack

7.3

RePack

MK11

7.7

RePack

jed

7.8

RePack

fifa19

8.5

RePack

RDR2

RePack

NEED FOR SPEED™ PAYBACK

5 сезон

9 сезон

Бесстыжие 9 сезон

Все сериалы

все сериалы на PB.wtf

RePack

FAR CRY 5

Anonymous, доброй ночи, мы катастрофически не успеваем собрать деньги на оплату серверов, помогите нам пожалуйста 5,10,15р., для нас важна любая помощь . В качестве благодарности мы отключим Вам всю рекламу на сайте (укажите свой ник в строку Ваше имя)!

×
  
Magnet ссылка

Узники страны призраков / Prisoners of the Ghostland (Сион Соно) [2021, Фантастика, боевик, HDRip-AVC] DUB [Кинопоиск HD] от ExKinoRay pb.wtf

Узники страны призраков через торрент pb.wtf

Раздают: 4 [ 0 KB/s ]
Размер: 2.04 GB | Добавлен: 17 д. назад | Торрент скачан:114 раз
Смотреть онлайн Узники страны призраков | Скачать    Ребята, помогите собрать деньги на оплату серверов!!!

09-11-2021 16:02 Узники страны призраков Скачать торрент  


Узники страны призраков / Prisoners of the Ghostland
Информация о фильме:
Название: Узники страны призраков
Оригинальное название: Prisoners of the Ghostland
Год выхода: 2021
Жанр: Фантастика, боевик
Режиссер: Сион Соно
В ролях: Николас Кейдж, София Бутелла, Эд Скрейн, Тереса Руис, Ник Кассаветис, Билл Моусли, Такато Йонемото, Юрино, Нариса Сузуки, Грэйс Сантос

Описание: Действие ленты «Узники страны призраков» разворачивается в будущем вокруг героя-одиночки, который должен отыскать пропавшую без вести внучку Губернатора. Он одет в начиненный взрывчаткой костюм, а от успеха его опасной миссии зависит судьба всего человечества.



Страна: США
Студия: Baked Studios, Boos Boos Bang Bang, Eleven Arts Inc., Patriot Pictures LLC, RLJE Films, Untitled Entertainment, XYZ Films
Продолжительность: 01:42:34
Перевод: Дублированный - Кинопоиск HD (Akimbo Production)



Информация о файле:
Кодек: AVC
Формат: MKV
Качество: HDRip-AVC
Видео: MPEG-4 AVC, 1024x428, 23.976 fps, 1950 kbps
Аудио RU: AC3, 6 ch, 48 kHz, 448 kbps
Аудио EN: AC3, 6 ch, 48 kHz, 448 kbps
Субтитры: Русские (Forced, full), английские

x264 info: frame I:1353 Avg QP:16.68 size: 70724
x264 info: frame P:37568 Avg QP:19.83 size: 19778
x264 info: frame B:108629 Avg QP:22.17 size: 6088
x264 info: consecutive B-frames: 3.5% 5.2% 12.4% 31.0% 16.9% 26.1% 2.8% 1.0% 0.4% 0.4% 0.2%
General
Unique ID : 75013724366442512975276524755519108381 (0x386F1E281F95E54D9CD908CF402D751D)
Complete name : D:\uTorrent\Рипы wolf1245\Prisoners of the Ghostland.2021.DUB.KHD.HDRip-AVC.[wolf1245.ExKinoRay].mkv
Format : Matroska
Format version : Version 4
File size : 2.04 GiB
Duration : 1 h 42 min
Overall bit rate : 2 848 kb/s
Movie name : Prisoners of the Ghostland.2021.DUB.KHD.HDRip-AVC.[wolf1245.ExKinoRay]
Encoded date : UTC 2021-11-09 15:46:53
Writing application : mkvmerge v62.0.0 ('Apollo') 64-bit
Writing library : libebml v1.4.2 + libmatroska v1.6.4

Video
ID : 1
Format : AVC
Format/Info : Advanced Video Codec
Format profile : High@L4.1
Format settings : CABAC / 12 Ref Frames
Format settings, CABAC : Yes
Format settings, Reference frames : 12 frames
Codec ID : V_MPEG4/ISO/AVC
Duration : 1 h 42 min
Bit rate : 1 950 kb/s
Width : 1 024 pixels
Height : 428 pixels
Display aspect ratio : 2.40:1
Frame rate mode : Constant
Frame rate : 23.976 (24000/1001) FPS
Color space : YUV
Chroma subsampling : 4:2:0
Bit depth : 8 bits
Scan type : Progressive
Bits/(Pixel*Frame) : 0.186
Stream size : 1.40 GiB (68%)
Title : -=[wolf1245.ExKinoRay]=-
Writing library : x264 core 161 r3020 d198931
Encoding settings : cabac=1 / ref=12 / deblock=1:-3:-3 / analyse=0x3:0x133 / me=umh / subme=11 / psy=1 / psy_rd=1.02:0.03 / mixed_ref=1 / me_range=48 / chroma_me=1 / trellis=2 / 8x8dct=1 / cqm=0 / deadzone=21,11 / fast_pskip=1 / chroma_qp_offset=-3 / threads=10 / lookahead_threads=2 / sliced_threads=0 / nr=0 / decimate=0 / interlaced=0 / bluray_compat=0 / constrained_intra=0 / bframes=10 / b_pyramid=2 / b_adapt=2 / b_bias=0 / direct=3 / weightb=1 / open_gop=0 / weightp=2 / keyint=240 / keyint_min=24 / scenecut=40 / intra_refresh=0 / rc_lookahead=60 / rc=2pass / mbtree=0 / bitrate=1950 / ratetol=1.0 / qcomp=0.60 / qpmin=0 / qpmax=69 / qpstep=4 / cplxblur=20.0 / qblur=0.5 / vbv_maxrate=50000 / vbv_bufsize=62500 / nal_hrd=none / filler=0 / ip_ratio=1.40 / pb_ratio=1.30 / aq=1:0.80
Language : English
Default : Yes
Forced : No

Audio #1
ID : 2
Format : AC-3
Format/Info : Audio Coding 3
Commercial name : Dolby Digital
Codec ID : A_AC3
Duration : 1 h 42 min
Bit rate mode : Constant
Bit rate : 448 kb/s
Channel(s) : 6 channels
Channel layout : L R C LFE Ls Rs
Sampling rate : 48.0 kHz
Frame rate : 31.250 FPS (1536 SPF)
Compression mode : Lossy
Stream size : 329 MiB (16%)
Title : Dub | Kinopoisk HD
Language : Russian
Service kind : Complete Main
Default : Yes
Forced : No

Audio #2
ID : 3
Format : AC-3
Format/Info : Audio Coding 3
Commercial name : Dolby Digital
Codec ID : A_AC3
Duration : 1 h 42 min
Bit rate mode : Constant
Bit rate : 448 kb/s
Channel(s) : 6 channels
Channel layout : L R C LFE Ls Rs
Sampling rate : 48.0 kHz
Frame rate : 31.250 FPS (1536 SPF)
Compression mode : Lossy
Stream size : 329 MiB (16%)
Title : Original
Language : English
Service kind : Complete Main
Default : No
Forced : No

Text #1
ID : 4
Format : UTF-8
Codec ID : S_TEXT/UTF8
Codec ID/Info : UTF-8 Plain Text
Duration : 1 h 34 min
Bit rate : 8 b/s
Count of elements : 129
Stream size : 6.18 KiB (0%)
Title : Forced
Language : Russian
Default : Yes
Forced : Yes

Text #2
ID : 5
Format : UTF-8
Codec ID : S_TEXT/UTF8
Codec ID/Info : UTF-8 Plain Text
Duration : 1 h 34 min
Bit rate : 49 b/s
Count of elements : 800
Stream size : 34.5 KiB (0%)
Title : Full
Language : Russian
Default : No
Forced : No

Text #3
ID : 6
Format : UTF-8
Codec ID : S_TEXT/UTF8
Codec ID/Info : UTF-8 Plain Text
Duration : 1 h 35 min
Bit rate : 22 b/s
Count of elements : 715
Stream size : 16.0 KiB (0%)
Title : Full
Language : English
Default : No
Forced : No

Menu
00:00:00.000 : :Глава 01
00:11:54.631 : :Глава 02
00:31:55.872 : :Глава 03
00:42:11.738 : :Глава 04
00:52:23.474 : :Глава 05
01:00:30.001 : :Глава 06
01:15:01.580 : :Глава 07
01:37:11.701 : :Глава 08
Релиз от:

Автор релиза:
pb.wtf



Скачать Узники страны призраков через торрент https://i116.fastpic.org/big/2021/1109/da/137e42baa6985b836b527ca3f34998da.jpg Скачать, смотреть онлайн Узники страны призраков бесплантно в хорошем качестве Описание: Действие ленты «Узники страны призраков» разворачивается в будущем вокруг героя-одиночки, который должен отыскать пропавшую без ... 7.6 10 7
Info! Золотая раздача, скачанное не засчитывается.
Торрент: Зарегистрирован [2021-11-09 16:02] · скачан: 114 раз
Статус: √ проверено
Размер: 2.04 GB
Как cкачать? Как скачать Узники страны призраков через торрент | UTorrent

28-11-2019 20:33  

Отключить всю рекламу на сайте

    Дорогой пользователь! Огромная просьба, поблагодарите релизера, оцените раздачу и оставьте свои комментарий, если Вы скачали Узники страны призраков через торрент бесплатно!
    Комментировать посты могут только пользователи прошедшие не сложную регистрацию
    Показать сообщения:    

    Узники страны призраков через торрент
    Скачать бесплатно Узники страны призраков
    Узники страны призраков скачать торрент
    Узники страны призраков смотреть онлайн
    Cкачать фильм Узники страны призраков бесплатно
    Узники страны призраков скачать торрент в хорошем качестве
    Узники страны призраков смотреть онлайн бесплатно в хорошем качестве


    Вы не можете начинать темы
    Вы не можете отвечать на сообщения
    Вы не можете редактировать свои сообщения
    Вы не можете удалять свои сообщения
    Вы не можете голосовать в опросах
    Вы не можете прикреплять файлы к сообщениям
    Вы можете скачивать файлы