Всегда рабочее зеркало просто перед .vidak.icu напиши любое слово или цифру, Пример http://t1h.vidak.icu

>

7.4

iTunes

7.4

2 сезон

6.6

iTunes

1

7.4

2 сезон

7.2

iTunes

6.0

MVO

13

6.1

iTunes

8.3

Пиратка

30

ULTIMATE

pack

9.9

Лицензия

ВАЖНО

ИГРА 18+

pack

7.3

RePack

MK11

7.7

RePack

jed

7.8

RePack

fifa19

8.5

RePack

RDR2

RePack

NEED FOR SPEED™ PAYBACK

1 сезон

9 сезон

Бесстыжие 9 сезон

Все сериалы

все сериалы на PB.wtf

RePack

FAR CRY 5

Anonymous, доброй ночи, мы катастрофически не успеваем собрать деньги на оплату серверов, помогите нам пожалуйста 5,10,15р., для нас важна любая помощь . В качестве благодарности мы отключим Вам всю рекламу на сайте (укажите свой ник в строку Ваше имя)!

×
  
Magnet ссылка

Шан-Чи и легенда десяти колец / Shang-Chi and the Legend of the Ten Rings (Дестин Дэниел Креттон) [2021, Фантастика, фэнтези, боевик, приключения, BDRip 1080p] DUB [Невафильм] pb.wtf

Шан-Чи и легенда десяти колец через торрент pb.wtf

Раздают: 15 [ 124 KB/s ]
Размер: 12.51 GB | Добавлен: 2 мес. 9 д. назад | Торрент скачан:830 раз
Смотреть онлайн Шан-Чи и легенда десяти колец | Скачать    Ребята, помогите собрать деньги на оплату серверов!!!

11-11-2021 09:42 Шан-Чи и легенда десяти колец Скачать торрент  

Шан-Чи и легенда десяти колец
Shang-Chi and the Legend of the Ten Rings

Год выпуска: 2021
Страна: США, Австралия
Выпущено: Walt Disney Pictures, Marvel Studios, Fox Studios Australia
Жанр: Фантастика, фэнтези, боевик, приключения
Продолжительность: 02:12:20
Перевод: Дублированный | Невафильм
Субтитры: Русские (Forced, Full), английские

Режиссер: Дестин Дэниел Креттон

rating

В ролях: Симу Лю, Тони Люн Чу Вай, Аквафина, Мишель Йео, Флориан Мунтяну, Ронни Чиэн, Чэнь Фала, Даллас Джеймс Лью, Чжан Мэнъэр, Тим Рот, Бенедикт Вонг, Бен Кингсли

Описание: Благодаря изнуряющим тренировкам и жесткому воспитанию отца Шан-Чи достиг небывалых высот в боевых искусствах, но выбрал не ту жизнь, которую уготовил для него родитель. Работая простым парковщиком в Сан-Франциско, Шан-Чи сталкивается с призраками прошлого и вместе с подругой Кэти оказывается втянут в водоворот фантастических событий, связанных с таинственной организацией «Десять колец»

Качество: BDRip 1080p
Формат: MKV

Видео: MPEG-4 AVC, 1920x804, 12.0 Mbit/s, 23.976 fps
Аудио #01: 48 kHz, E-AC3, 5.1, 448 Kbps | Дублированный | Невафильм | RUS |
Аудио #02: 48 kHz, AC3, 5.1, 448 Kbps | Дублированный | Невафильм | RUS |
Аудио #03: 48 kHz, AC3, 5.1, 640 Kbps | Оригинал | ENG |
скриншот  скриншот  скриншот  скриншот  скриншот  

General
Unique ID : 33057950540776967886318649165819320039 (0x18DEBACC9D1395B3D55724488B1A96E7)
Complete name : E:VideoShang-Chi.and.the.Legend.of.the.Ten.Rings.2021.BDRip.1080p.seleZen.mkv
Format : Matroska
Format version : Version 4
File size : 12.5 GiB
Duration : 2 h 12 min
Overall bit rate : 13.5 Mb/s
Movie name : Shang-Chi and the Legend of the Ten Rings 2021 from seleZen
Encoded date : UTC 2021-11-12 02:43:32
Writing application : mkvmerge v59.0.0 ('Shining Star') 64-bit
Writing library : libebml v1.4.2 + libmatroska v1.6.4

Video
ID : 1
Format : AVC
Format/Info : Advanced Video Codec
Format profile : High@L4.1
Format settings : CABAC / 5 Ref Frames
Format settings, CABAC : Yes
Format settings, Reference frames : 5 frames
Format settings, GOP : M=1, N=3
Codec ID : V_MPEG4/ISO/AVC
Duration : 2 h 12 min
Bit rate : 12.0 Mb/s
Width : 1 920 pixels
Height : 804 pixels
Display aspect ratio : 2.40:1
Frame rate mode : Constant
Frame rate : 23.976 (24000/1001) FPS
Color space : YUV
Chroma subsampling : 4:2:0
Bit depth : 8 bits
Scan type : Progressive
Bits/(Pixel*Frame) : 0.324
Stream size : 11.1 GiB (89%)
Title : PSiG
Writing library : x264 core 150 r2833kMod df79067
Encoding settings : cabac=1 / ref=5 / deblock=1:-3:-3 / analyse=0x3:0x133 / me=umh / subme=10 / psy=1 / fade_compensate=0.00 / psy_rd=1.00:0.00 / mixed_ref=1 / me_range=32 / chroma_me=1 / trellis=2 / 8x8dct=1 / cqm=0 / deadzone=21,11 / fast_pskip=0 / chroma_qp_offset=-2 / threads=24 / lookahead_threads=6 / sliced_threads=0 / nr=0 / decimate=0 / interlaced=0 / bluray_compat=0 / constrained_intra=0 / bframes=11 / b_pyramid=2 / b_adapt=1 / b_bias=0 / direct=3 / weightb=1 / open_gop=0 / weightp=2 / keyint=250 / keyint_min=23 / scenecut=40 / intra_refresh=0 / rc=2pass / mbtree=0 / bitrate=12000 / ratetol=1.0 / qcomp=0.60 / qpmin=0 / qpmax=69 / qpstep=4 / cplxblur=20.0 / qblur=0.5 / ip_ratio=1.40 / pb_ratio=1.30 / aq=3:0.80
Language : English
Default : Yes
Forced : No

Audio #1
ID : 2
Format : E-AC-3
Format/Info : Enhanced AC-3
Commercial name : Dolby Digital Plus
Codec ID : A_EAC3
Duration : 2 h 12 min
Bit rate mode : Constant
Bit rate : 448 kb/s
Channel(s) : 6 channels
Channel layout : L R C LFE Ls Rs
Sampling rate : 48.0 kHz
Frame rate : 31.250 FPS (1536 SPF)
Compression mode : Lossy
Stream size : 425 MiB (3%)
Title : Dub [Nevafilm]
Language : Russian
Service kind : Complete Main
Default : Yes
Forced : Yes

Audio #2
ID : 3
Format : AC-3
Format/Info : Audio Coding 3
Commercial name : Dolby Digital
Codec ID : A_AC3
Duration : 2 h 12 min
Bit rate mode : Constant
Bit rate : 448 kb/s
Channel(s) : 6 channels
Channel layout : L R C LFE Ls Rs
Sampling rate : 48.0 kHz
Frame rate : 31.250 FPS (1536 SPF)
Compression mode : Lossy
Stream size : 425 MiB (3%)
Title : Dub [Nevafilm]
Language : Russian
Service kind : Complete Main
Default : No
Forced : No

Audio #3
ID : 4
Format : AC-3
Format/Info : Audio Coding 3
Commercial name : Dolby Digital
Codec ID : A_AC3
Duration : 2 h 12 min
Bit rate mode : Constant
Bit rate : 640 kb/s
Channel(s) : 6 channels
Channel layout : L R C LFE Ls Rs
Sampling rate : 48.0 kHz
Frame rate : 31.250 FPS (1536 SPF)
Compression mode : Lossy
Stream size : 606 MiB (5%)
Title : Original
Language : English
Service kind : Complete Main
Default : No
Forced : No

Text #1
ID : 5
Format : UTF-8
Codec ID : S_TEXT/UTF8
Codec ID/Info : UTF-8 Plain Text
Duration : 2 h 8 min
Bit rate : 7 b/s
Count of elements : 168
Stream size : 6.98 KiB (0%)
Title : Forced
Language : Russian
Default : Yes
Forced : Yes

Text #2
ID : 6
Format : UTF-8
Codec ID : S_TEXT/UTF8
Codec ID/Info : UTF-8 Plain Text
Duration : 2 h 11 min
Bit rate : 59 b/s
Count of elements : 1121
Stream size : 56.9 KiB (0%)
Title : Full
Language : Russian
Default : No
Forced : No

Text #3
ID : 7
Format : UTF-8
Codec ID : S_TEXT/UTF8
Codec ID/Info : UTF-8 Plain Text
Duration : 1 h 55 min
Bit rate : 5 b/s
Count of elements : 188
Stream size : 4.97 KiB (0%)
Title : Forced
Language : English
Default : No
Forced : No

Text #4
ID : 8
Format : UTF-8
Codec ID : S_TEXT/UTF8
Codec ID/Info : UTF-8 Plain Text
Duration : 2 h 10 min
Bit rate : 38 b/s
Count of elements : 1302
Stream size : 36.9 KiB (0%)
Title : Full
Language : English
Default : No
Forced : No

Text #5
ID : 9
Format : UTF-8
Codec ID : S_TEXT/UTF8
Codec ID/Info : UTF-8 Plain Text
Duration : 2 h 11 min
Bit rate : 51 b/s
Count of elements : 1850
Stream size : 49.2 KiB (0%)
Title : SDH
Language : English
Default : No
Forced : No

Text #6
ID : 10
Format : UTF-8
Codec ID : S_TEXT/UTF8
Codec ID/Info : UTF-8 Plain Text
Duration : 2 h 12 min
Bit rate : 76 b/s
Count of elements : 1897
Stream size : 74.1 KiB (0%)
Title : Commentary
Language : English
Default : No
Forced : No

Text #7
ID : 11
Format : UTF-8
Codec ID : S_TEXT/UTF8
Codec ID/Info : UTF-8 Plain Text
Duration : 2 h 12 min
Bit rate : 82 b/s
Count of elements : 2017
Stream size : 80.1 KiB (0%)
Title : Commentary-SDH
Language : English
Default : No
Forced : No

Menu
00:00:00.000 : :Chapter 01
00:03:52.858 : :Chapter 02
00:09:28.985 : :Chapter 03
00:16:17.185 : :Chapter 04
00:22:47.491 : :Chapter 05
00:31:59.668 : :Chapter 06
00:42:49.484 : :Chapter 07
00:52:21.055 : :Chapter 08
00:56:51.325 : :Chapter 09
01:00:35.006 : :Chapter 10
01:08:46.122 : :Chapter 11
01:15:55.050 : :Chapter 12
01:19:51.286 : :Chapter 13
01:29:49.676 : :Chapter 14
01:36:45.800 : :Chapter 15
01:47:00.623 : :Chapter 16
01:55:25.293 : :Chapter 17
02:00:07.242 : :Chapter 18
02:01:46.132 : :Chapter 19
02:04:08.858 : :Chapter 20
02:10:39.248 : :Chapter 21

pb.wtf



Скачать Шан-Чи и легенда десяти колец через торрент https://i116.fastpic.org/big/2021/1112/db/47870e0d52c20119622d4deb23433adb.jpg Скачать, смотреть онлайн Шан-Чи и легенда десяти колец бесплантно в хорошем качестве Описание: Благодаря изнуряющим тренировкам и жесткому воспитанию отца Шан-Чи достиг небывалых высот в боевых искусствах, но выбрал не ту ... 9.9 10 38
Info! Золотая раздача, скачанное не засчитывается.
Торрент: Зарегистрирован [2021-11-12 04:32] · скачан: 830 раз
Статус: √ проверено
Размер: 12.51 GB
Как cкачать? Как скачать Шан-Чи и легенда десяти колец через торрент | UTorrent

% Раздел Тема Автор DL S | L
3D Фильмы [ 11.71 GB ] Шан-Чи и легенда десяти колец в 3Д / Shang-Chi and the Legend of the Ten Rings 3D [2021 BDRip 1080p ] DUB [Невафильм] bober100 Скачать
5 | 0
3D Фильмы [ 18.78 GB ] Шан-Чи и легенда десяти колец в 3Д / Shang-Chi and the Legend of the Ten Rings 3D [2021 BDRip 1080p] OverUnder / Вертикальная стереопара serega768 Скачать
1 | 0
Фильмы 2021 [DVDrip, WEB-DLRip, HDrip] (DUB, MVO) [ 1.46 GB ] Шан-Чи и легенда десяти колец / Shang-Chi and the Legend of the Ten Rings [2021 BDRip] - [ / Невафильм] Twi7ter Скачать
368 | 45
Ultra HD (UHD: 2K, 4K, 8K) — видео сверхвысокой чёткости [ 16.86 GB ] Шан-Чи и легенда десяти колец / Shang-Chi and the Legend of the Ten Rings [2021 UHD WEB-DL-HEVC 2160p ] DUB [Невафильм] bober100 Скачать
11 | 0
Фильмы (WEB-DL 720p, 1080p) [ 8.04 GB ] Шан-Чи и легенда десяти колец / Shang-Chi and the Legend of the Ten Rings [2021 WEB-DL 1080p ] DUB [Невафильм] bober100 Скачать
16 | 0
Фильмы [HD 720p, 1080p] (Хороший звук DUB, MVO) [ 4.48 GB ] Шан-Чи и легенда десяти колец / Shang-Chi and the Legend of the Ten Rings [2021 BDRip 1080p] + [Ukr DUB] killermax2013 Скачать
16 | 0
Фильмы 2021 [DVDrip, WEB-DLRip, HDrip] (DUB, MVO) [ 1.43 GB ] Шан-Чи и легенда десяти колец / Shang-Chi and the Legend of the Ten Rings [2021 BDRip-AVC] Dub [КиноПоиск HD] sokol_ok Скачать
67 | 42


Последний раз редактировалось: bober100 (2021-11-12 04:49), всего редактировалось 4 раз(а)

28-11-2019 20:33  

Отключить всю рекламу на сайте

12-11-2021 02:14 Шан-Чи и легенда десяти колец Скачать торрент  

так себе, но получше нового бонда будет чуткаpb.wtf



23-11-2021 20:00 Шан-Чи и легенда десяти колец Скачать торрент  

бонд скушный был. к тому же теперь еще и мертвый.
А Шанчи - красивая сазочка прям на ура зашла..pb.wtf



    Дорогой пользователь! Огромная просьба, поблагодарите релизера, оцените раздачу и оставьте свои комментарий, если Вы скачали Шан-Чи и легенда десяти колец через торрент бесплатно!
    Комментировать посты могут только пользователи прошедшие не сложную регистрацию
    Показать сообщения:    

    Шан-Чи и легенда десяти колец через торрент
    Скачать бесплатно Шан-Чи и легенда десяти колец
    Шан-Чи и легенда десяти колец скачать торрент
    Шан-Чи и легенда десяти колец смотреть онлайн
    Cкачать фильм Шан-Чи и легенда десяти колец бесплатно
    Шан-Чи и легенда десяти колец скачать торрент в хорошем качестве
    Шан-Чи и легенда десяти колец смотреть онлайн бесплатно в хорошем качестве


    Вы не можете начинать темы
    Вы не можете отвечать на сообщения
    Вы не можете редактировать свои сообщения
    Вы не можете удалять свои сообщения
    Вы не можете голосовать в опросах
    Вы не можете прикреплять файлы к сообщениям
    Вы можете скачивать файлы