Всегда рабочее зеркало без VPN и Proxy просто перед .vidak.icu напиши любое слово или цифру, Пример http://10m5.vidak.icu

MVO

MVO

1 сезон

1

1 сезон

iTunes

1 сезон

13

1 сезон

Deluxe

pack

Рекомендуем

Repack

30

ВАЖНО

RePack

MK11

RePack

jed

RePack

fifa19

RePack

RDR2

RePack

NEED FOR SPEED™ PAYBACK

Кинопоиск HD

6 сезон

 Острые козырьки 6 сезон

Все сериалы

все сериалы на PB.wtf

RePack

FAR CRY 5
  
Magnet ссылка

Безумный Макс 2: Воин дороги / Mad Max 2 (Джордж Миллер) [1981, Фантастика, боевик, триллер, приключения, UHD BDRemux 2160p] DUB+MVO+2xAVO pb.wtf

Безумный Макс 2: Воин дороги через торрент pb.wtf

Размер: 43.64 GB | Добавлен: 8 мес. назад | Торрент скачан:26 раз
Смотреть онлайн Безумный Макс 2: Воин дороги | Скачать    Ребята, помогите собрать деньги на оплату серверов!!!

11-11-2021 13:31 Безумный Макс 2: Воин дороги Скачать торрент  

Безумный Макс 2: Воин дороги
Mad Max 2

Год выпуска: 1981
Страна: Австралия, США
Студия: Kennedy Miller Productions
Жанр: Фантастика, боевик, триллер, приключения
Продолжительность: 01:35:28
Перевод:
#1: Дублированный
#2: Профессиональный многоголосый | «Киномания»
#3: Авторский | Д.Пучков «Гоблин»
#4: Авторский | А.Михалёв
Субтитры: Русские (Full), английские

Режиссер: Джордж Миллер

rating

В ролях: Мэл Гибсон, Брюс Спенс, Майкл Престон, Макс Фиппс, Вернон Уэллс, Кьелль Нильссон, Эмиль Минти, Вирджиния Хей, Уильям Заппа, Арки Уайтели

Описание: Катастрофа пострашнее ядерной войны постигла нашу цивилизацию. Страшный энергетический кризис парализовал города, пути сообщения - одним словом, все. За топливо теперь дерутся любыми средствами. Потому что там, где бензин, - там жизнь... Одинокий водитель Макс как раз и бороздит пустоши далекой Австралии в поисках горючего. Повсюду брошенные жилища, машины, разный скарб. Наконец Макс находит поселение, превращенное в укрепленный лагерь со складами горючего. Исхудавшие, измученные люди как могут охраняют то, что им принадлежит. И вот, в довершение всех бед, на лагерь нападают враги, свирепые панки и байкеры под предводительством некоего Гумунгуса, садиста и душегуба. И тогда Макс вступает в схватку...

Качество: UHD BDRemux 2160p
Формат: MKV

Видео: 3840x2160 at 23.976 fps, MPEG-H HEVC HDR Video, ~ 59.6 Mбит/с avg
Аудио #01: 48 kHz, AC3, 5.1, 384 Kbps | Дублированный | RUS |
Аудио #02: 48 kHz, AC3, 5.1, 384 Kbps | Профессиональный многоголосый («Киномания») | RUS |
Аудио #03: 48 kHz, AC3, 5.1, 640 Kbps | Авторский (Д.Пучков «Гоблин») | RUS |
Аудио #04: 48 kHz, AC3, 5.1, 640 Kbps | Авторский (А.Михалёв) | RUS |
Аудио #05: 48 kHz, TrueHD, 7.1, 3124 Kbps | Оригинал | ENG |
Аудио #06: 48 kHz, AC3, 5.1, 640 Kbps | Оригинал | ENG |
скриншот  скриншот  скриншот  

скриншот  скриншот  скриншот  

General
Unique ID : 331132550079380434038673323193041979511 (0xF91DCF33429C052F569C5BA2C4648877)
Complete name : E:VideoMad.Max.2.The.Road.Warrior.1981.BDREMUX.2160p.HDR.seleZen.mkv
Format : Matroska
Format version : Version 4
File size : 43.6 GiB
Duration : 1 h 35 min
Overall bit rate mode : Variable
Overall bit rate : 65.4 Mb/s
Movie name : Mad Max 2: The Road Warrior 1981 from seleZen
Encoded date : UTC 2021-11-11 12:48:29
Writing application : mkvmerge v59.0.0 ('Shining Star') 64-bit
Writing library : libebml v1.4.2 + libmatroska v1.6.4

Video
ID : 1
Format : HEVC
Format/Info : High Efficiency Video Coding
Format profile : Main [email protected]@High
HDR format : SMPTE ST 2086, HDR10 compatible
Codec ID : V_MPEGH/ISO/HEVC
Duration : 1 h 35 min
Bit rate : 59.6 Mb/s
Width : 3 840 pixels
Height : 2 160 pixels
Display aspect ratio : 16:9
Frame rate mode : Constant
Frame rate : 23.976 (24000/1001) FPS
Color space : YUV
Chroma subsampling : 4:2:0 (Type 2)
Bit depth : 10 bits
Bits/(Pixel*Frame) : 0.299
Stream size : 39.7 GiB (91%)
Language : English
Default : Yes
Forced : No
Color range : Limited
Color primaries : BT.2020
Transfer characteristics : PQ
Matrix coefficients : BT.2020 non-constant
Mastering display color primaries : Display P3
Mastering display luminance : min: 0.0001 cd/m2, max: 1000 cd/m2
Maximum Content Light Level : 940 cd/m2
Maximum Frame-Average Light Level : 169 cd/m2

Audio #1
ID : 2
Format : AC-3
Format/Info : Audio Coding 3
Commercial name : Dolby Digital
Codec ID : A_AC3
Duration : 1 h 35 min
Bit rate mode : Constant
Bit rate : 384 kb/s
Channel(s) : 6 channels
Channel layout : L R C LFE Ls Rs
Sampling rate : 48.0 kHz
Frame rate : 31.250 FPS (1536 SPF)
Compression mode : Lossy
Stream size : 262 MiB (0%)
Title : (dubbed)
Language : Russian
Service kind : Complete Main
Default : Yes
Forced : Yes

Audio #2
ID : 3
Format : AC-3
Format/Info : Audio Coding 3
Commercial name : Dolby Digital
Codec ID : A_AC3
Duration : 1 h 35 min
Bit rate mode : Constant
Bit rate : 384 kb/s
Channel(s) : 6 channels
Channel layout : L R C LFE Ls Rs
Sampling rate : 48.0 kHz
Frame rate : 31.250 FPS (1536 SPF)
Compression mode : Lossy
Stream size : 262 MiB (0%)
Title : (voice over - Kinomania)
Language : Russian
Service kind : Complete Main
Default : No
Forced : No

Audio #3
ID : 4
Format : AC-3
Format/Info : Audio Coding 3
Commercial name : Dolby Digital
Codec ID : A_AC3
Duration : 1 h 35 min
Bit rate mode : Constant
Bit rate : 640 kb/s
Channel(s) : 6 channels
Channel layout : L R C LFE Ls Rs
Sampling rate : 48.0 kHz
Frame rate : 31.250 FPS (1536 SPF)
Compression mode : Lossy
Stream size : 437 MiB (1%)
Title : (Goblin)
Language : Russian
Service kind : Complete Main
Default : No
Forced : No

Audio #4
ID : 5
Format : AC-3
Format/Info : Audio Coding 3
Commercial name : Dolby Digital
Codec ID : A_AC3
Duration : 1 h 35 min
Bit rate mode : Constant
Bit rate : 640 kb/s
Channel(s) : 6 channels
Channel layout : L R C LFE Ls Rs
Sampling rate : 48.0 kHz
Frame rate : 31.250 FPS (1536 SPF)
Compression mode : Lossy
Stream size : 437 MiB (1%)
Title : (Mihalev)
Language : Russian
Service kind : Complete Main
Default : No
Forced : No

Audio #5
ID : 6
Format : MLP FBA 16-ch
Format/Info : Meridian Lossless Packing FBA with 16-channel presentation
Commercial name : Dolby TrueHD with Dolby Atmos
Codec ID : A_TRUEHD
Duration : 1 h 35 min
Bit rate mode : Variable
Bit rate : 3 124 kb/s
Maximum bit rate : 5 064 kb/s
Channel(s) : 8 channels
Channel layout : L R C LFE Ls Rs Lb Rb
Sampling rate : 48.0 kHz
Frame rate : 1 200.000 FPS (40 SPF)
Bit depth : 24 bits
Compression mode : Lossless
Stream size : 2.08 GiB (5%)
Title : Original
Language : English
Default : No
Forced : No
Number of dynamic objects : 11
Bed channel count : 1 channel
Bed channel configuration : LFE

Audio #6
ID : 7
Format : AC-3
Format/Info : Audio Coding 3
Commercial name : Dolby Digital
Codec ID : A_AC3
Duration : 1 h 35 min
Bit rate mode : Constant
Bit rate : 640 kb/s
Channel(s) : 6 channels
Channel layout : L R C LFE Ls Rs
Sampling rate : 48.0 kHz
Frame rate : 31.250 FPS (1536 SPF)
Compression mode : Lossy
Stream size : 437 MiB (1%)
Language : English
Service kind : Complete Main
Default : No
Forced : No

Text #1
ID : 8
Format : UTF-8
Codec ID : S_TEXT/UTF8
Codec ID/Info : UTF-8 Plain Text
Duration : 1 h 31 min
Bit rate : 38 b/s
Count of elements : 457
Stream size : 25.6 KiB (0%)
Language : Russian
Default : No
Forced : No

Text #2
ID : 9
Format : UTF-8
Codec ID : S_TEXT/UTF8
Codec ID/Info : UTF-8 Plain Text
Duration : 1 h 30 min
Bit rate : 21 b/s
Count of elements : 443
Stream size : 14.3 KiB (0%)
Language : English
Default : No
Forced : No

Menu
00:00:00.000 : Chapter 01
00:09:48.713 : Chapter 02
00:19:05.227 : Chapter 03
00:29:05.869 : Chapter 04
00:39:41.170 : Chapter 05
00:49:21.416 : Chapter 06
00:59:40.827 : Chapter 07
01:11:38.877 : Chapter 08
01:23:35.301 : Chapter 09
01:32:29.168 : Chapter 10

pb.wtf



Скачать Безумный Макс 2: Воин дороги через торрент https://d.radikal.ru/d04/2111/5f/4b2f304cadd0.jpg Скачать, смотреть онлайн Безумный Макс 2: Воин дороги бесплантно в хорошем качестве Описание: Катастрофа пострашнее ядерной войны постигла нашу цивилизацию. Страшный энергетический кризис парализовал города, пути сообщения ... 10 10 3
Info! Золотая раздача, скачанное не засчитывается.
Торрент: Зарегистрирован [2021-11-11 13:31] · скачан: 26 раз
Статус: √ проверено
Размер: 43.64 GB
Как cкачать? Как скачать Безумный Макс 2: Воин дороги через торрент | UTorrent

28-11-2019 20:33  

Отключить вcю реклaмy на сайте

    Дорогой пользователь! Огромная просьба, поблагодарите релизера, оцените раздачу и оставьте свои комментарий, если Вы скачали Безумный Макс 2: Воин дороги через торрент бесплатно!
    Комментировать посты могут только пользователи прошедшие не сложную регистрацию
    Показать сообщения:    

    Безумный Макс 2: Воин дороги через торрент
    Скачать бесплатно Безумный Макс 2: Воин дороги
    Безумный Макс 2: Воин дороги скачать торрент
    Безумный Макс 2: Воин дороги смотреть онлайн
    Cкачать фильм Безумный Макс 2: Воин дороги бесплатно
    Безумный Макс 2: Воин дороги скачать торрент в хорошем качестве
    Безумный Макс 2: Воин дороги смотреть онлайн бесплатно в хорошем качестве


    Вы не можете начинать темы
    Вы не можете отвечать на сообщения
    Вы не можете редактировать свои сообщения
    Вы не можете удалять свои сообщения
    Вы не можете голосовать в опросах
    Вы не можете прикреплять файлы к сообщениям
    Вы можете скачивать файлы