Присоединяйтесь к нам в Telegram!, здесь всегда актуальный адрес сайта, оперативная поддержка и многое другое!!

>

5.9

iTunes

7.4

iTunes

9.4

1 сезон

1

7.4

2 сезон

7.2

iTunes

7.3

1 сезон

13

6.1

iTunes

8.3

GOG

30

ULTIMATE

pack

9.9

Лицензия

ВАЖНО

ИГРА 18+

pack

7.3

RePack

MK11

7.7

RePack

jed

7.8

RePack

fifa19

8.5

RePack

RDR2

RePack

NEED FOR SPEED™ PAYBACK

5 сезон

9 сезон

Бесстыжие 9 сезон

Все сериалы

все сериалы на PB.wtf

RePack

FAR CRY 5

Anonymous, добрый вечер, мы катастрофически не успеваем собрать деньги на оплату серверов, помогите нам пожалуйста 5,10,15р., для нас важна любая помощь . В качестве благодарности мы отключим Вам всю рекламу на сайте (укажите свой ник в строку Ваше имя)!

×
  
Magnet ссылка

Демоник / Demonic (Нил Бломкамп) [2021 г., ужасы, фантастика, триллер, драма, HDRip, Дубляж "iTunes"] pb.wtf

Демоник через торрент pb.wtf

Размер: 732 MB | Добавлен: 19 д. назад | Торрент скачан:18 раз
Смотреть онлайн Демоник | Скачать    Ребята, помогите собрать деньги на оплату серверов!!!

11-11-2021 18:06 Демоник Скачать торрент  

Демоник / Demonic
Год выпуска: 2021
Страна: Канада / AGC Studios , Stabiliti Studios
Жанр: ужасы, фантастика, триллер, драма
Продолжительность: 01:44:35
Перевод: Дубляж (iTunes)
«Это не сон и не реальность»

Режиссер: Нил Бломкамп

rating

В ролях: Карли Поуп, Крис Мартин, Майкл Роджерс, Натали Болтт, Терри Чен, Кэндис МакКлюр, Джейсон П. Тремблей, Кинтон Бойсклер, Дерек Верстиг, Крис Фроз

Описание: Благодаря технологии, способной создавать проекции сознания других людей, Карли придется заглянуть в разум своей матери, 20 лет назад убившей более 20 человек, и отыскать истинную причину её жестокости.

Качество: HDRip
Формат: AVI
Видео кодек: DivX
Аудио кодек: MP3
Видео: 640x320 (2.00:1), 23.976 fps, DivX Codec 4.x ~841 kbps avg, 0.17 bit/pixel
Аудио: 48 kHz, MPEG Layer 3, 2 ch, ~128.00 kbps avg

Общее
Полное имя : G:\ФИЛЬМЫ\Демоник.2021.D.HDRip.avi.avi
Формат : AVI
Формат/Информация : Audio Video Interleave
Размер файла : 732 Мбайт
Продолжительность : 1 ч. 44 м.
Общий поток : 979 Кбит/сек
Программа кодирования : VirtualDubMod 1.5.10.3 | www.virtualdub-fr.org || (build 2550/release)
Библиотека кодирования : VirtualDubMod build 2550/release

Видео
Идентификатор : 0
Формат : MPEG-4 Visual
Профиль формата : Advanced Simple@L5
Настройки формата : BVOP2
Параметр BVOP формата : 2
Параметр QPel формата : Нет
Параметр GMC формата : Без точки перехода
Параметр матрицы формата : Default (MPEG)
Идентификатор кодека : DIVX
Идентификатор кодека/Информация : Project Mayo
Идентификатор кодека/Подсказка : DivX 4
Продолжительность : 1 ч. 44 м.
Битрейт : 842 Кбит/сек
Ширина : 640 пикселей
Высота : 320 пикселей
Соотношение сторон : 2,000
Частота кадров : 23,976 (24000/1001) кадра/сек
Цветовое пространство : YUV
Субдискретизация насыщенности : 4:2:0
Битовая глубина : 8 бит
Тип развёртки : Прогрессивная
Метод сжатия : С потерями
Бит/(Пиксели*Кадры) : 0.171
Размер потока : 630 Мбайт (86%)
Библиотека кодирования : XviD 1.2.1 (UTC 2008-12-04)

Аудио
Идентификатор : 1
Формат : MPEG Audio
Версия формата : Version 1
Профиль формата : Layer 3
Настройки формата : Joint stereo
Идентификатор кодека : 55
Идентификатор кодека/Подсказка : MP3
Продолжительность : 1 ч. 44 м.
Вид битрейта : Постоянный
Битрейт : 128 Кбит/сек
Каналы : 2 канала
Частота : 48,0 КГц
Частота кадров : 41,667 кадра/сек (1152 SPF)
Метод сжатия : С потерями
Размер потока : 95,7 Мбайт (13%)
Выравнивание : Соединение по промежуткам
Продолжительность промежутка : 42 мс. (1,00 видеокадр)
Время предзагрузки промежутка : 504 мс.
Библиотека кодирования : LAME3.99r
Настройки программы : -m j -V 4 -q 2 -lowpass 17 -b 128

Report created by : MediaInfoLib - v21.09
Report created on : UTC 2021-11-11 17:30:46

pb.wtf



Скачать Демоник через торрент https://pic1.kartinco.top/new/img/2021-11/11/jabc7cedajotknqmbkoeyo6o7.jpg Скачать, смотреть онлайн Демоник бесплантно в хорошем качестве Описание: Благодаря технологии, способной создавать проекции сознания других людей, Карли придется заглянуть в разум своей матери, 20 лет ... 10 10 2
Торрент: Зарегистрирован [2021-11-11 18:06] · скачан: 18 раз
Статус: √ проверено
Размер: 732 MB
Как cкачать? Как скачать Демоник через торрент | UTorrent

% Раздел Тема Автор DL S | L
Фильмы [HD 720p, 1080p] (Хороший звук DUB, MVO) [ 7.79 GB ] Демоник / Demonic [2021 BDRip 720p] bober100 Скачать
3 | 0
Фильмы 2021 [DVDrip, WEB-DLRip, HDrip] (DUB, MVO) [ 1.42 GB ] Демоник / Demonic [2021 BDRip] - Twi7ter Скачать
30 | 0
Фильмы 2021 [DVDrip, WEB-DLRip, HDrip] (DUB, MVO) [ 1.46 GB ] Демоник / Demonic [2021 HDRip] bober100 Скачать
5 | 0
Фильмы [HD 720p, 1080p] (Хороший звук DUB, MVO) [ 16.19 GB ] Демоник / Demonic [2021 BDRip 1080p] bober100 Скачать
6 | 0

28-11-2019 20:33  

Отключить всю рекламу на сайте

    Дорогой пользователь! Огромная просьба, поблагодарите релизера, оцените раздачу и оставьте свои комментарий, если Вы скачали Демоник через торрент бесплатно!
    Комментировать посты могут только пользователи прошедшие не сложную регистрацию
    Показать сообщения:    

    Демоник через торрент
    Скачать бесплатно Демоник
    Демоник скачать торрент
    Демоник смотреть онлайн
    Cкачать фильм Демоник бесплатно
    Демоник скачать торрент в хорошем качестве
    Демоник смотреть онлайн бесплатно в хорошем качестве


    Вы не можете начинать темы
    Вы не можете отвечать на сообщения
    Вы не можете редактировать свои сообщения
    Вы не можете удалять свои сообщения
    Вы не можете голосовать в опросах
    Вы не можете прикреплять файлы к сообщениям
    Вы можете скачивать файлы