Присоединяйтесь к нам в Telegram!, здесь всегда актуальный адрес сайта, оперативная поддержка и многое другое!!

>

5.9

iTunes

7.4

iTunes

9.4

1 сезон

1

7.4

2 сезон

7.2

iTunes

7.3

1 сезон

13

6.1

iTunes

8.3

GOG

30

ULTIMATE

pack

9.9

Лицензия

ВАЖНО

ИГРА 18+

pack

7.3

RePack

MK11

7.7

RePack

jed

7.8

RePack

fifa19

8.5

RePack

RDR2

RePack

NEED FOR SPEED™ PAYBACK

5 сезон

9 сезон

Бесстыжие 9 сезон

Все сериалы

все сериалы на PB.wtf

RePack

FAR CRY 5

Anonymous, доброй ночи, мы катастрофически не успеваем собрать деньги на оплату серверов, помогите нам пожалуйста 5,10,15р., для нас важна любая помощь . В качестве благодарности мы отключим Вам всю рекламу на сайте (укажите свой ник в строку Ваше имя)!

×
  
Magnet ссылка

Не время умирать / No Time to Die (Кэри Дзёдзи Фукунага) [2021, Боевик, триллер, приключения, WEB-DLRip-AVC] DUB, MVO [TS, Jaskier] от ExKinoRay pb.wtf

Не время умирать через торрент pb.wtf

Раздают: 3 [ 258 KB/s ]
Размер: 3.8 GB | Добавлен: 15 д. назад | Торрент скачан:88 раз
Смотреть онлайн Не время умирать | Скачать    Ребята, помогите собрать деньги на оплату серверов!!!

11-11-2021 19:22 Не время умирать Скачать торрент  


Не время умирать / No Time to Die
Информация о фильме:
Название: Не время умирать
Оригинальное название: No Time to Die
Год выхода: 2021
Жанр: боевик, триллер, приключения
Режиссер: Кэри Дзёдзи Фукунага

В ролях: Дэниел Крейг, Ана де Армас, Рами Малек, Леа Сейду, Лашана Линч, Ральф Файнс, Бен Уишоу, Наоми Харрис, Рори Киннер,
Джеффри Райт, Билли Магнуссен, Кристоф Вальц, Дэвид Денчик, Дали Бенссала, Лиза-Дора Соннет, Колин Дефо, Матильда Бурбин, Хью Деннис, Приянга Берфорд, Джо Гросси

Описание: Джеймс Бонд оставил оперативную службу и наслаждается спокойной жизнью на Ямайке. Все меняется, когда на острове появляется его старый друг Феликс Лейтер из ЦРУ с просьбой о помощи. Миссия по спасению похищенного ученого оказывается опаснее, чем предполагалось изначально. Бонд попадает в ловушку к таинственному злодею, вооруженному опасным технологическим оружием.



Страна: Великобритания, США
Студия: Universal Pictures, Metro-Goldwyn-Mayer (MGM), B25, Cinesite, Danjaq, Eon Productions Ltd.
Продолжительность: 02:43:23
Перевод: Дублированный - TS , Профессиональный (многоголосый, закадровый) - Jaskier



Информация о файле:
Кодек: AVC
Формат: MKV
Качество: WEB-DLRip-AVC
Видео: MPEG-4 AVC, 1024x426, 23.976 fps, 2300 kb/s
Аудио RU: AC3, 2 ch, 48 kHz, 192 kbps | TS |
Аудио RU: AC3, 6 ch, 48 kHz, 384 kbps | Jaskier |
Аудио EN: AC3, 6 ch, 48 kHz, 448 kbps
Субтитры: Русские (FOCS), aнглийские

x264 info: frame I:1926 Avg QP:14.40 size: 68458
x264 info: frame P:55682 Avg QP:17.86 size: 23664
x264 info: frame B:177447 Avg QP:19.66 size: 7711
x264 info: consecutive B-frames: 2.9% 5.7% 7.9% 26.5% 14.8% 29.5% 5.2% 5.1% 1.1% 0.5% 0.8%
General
Unique ID : 139521448157107167217766255242393002134 (0x68F6DA7E4161669AAF2DCF18FB41A096)
Complete name : D:uTorrentРипы wolf1245.No Time to Die.2021.DUB.TS.MVO.JASKIER.WEB-DLRip-AVC.[wolf1245.ExKinoRay].mkv
Format : Matroska
Format version : Version 4
File size : 3.80 GiB
Duration : 2 h 43 min
Overall bit rate : 3 326 kb/s
Movie name : .No Time to Die.2021.DUB.TS.MVO.JASKIER.WEB-DLRip-AVC.[wolf1245.ExKinoRay]
Encoded date : UTC 2021-11-11 19:03:52
Writing application : mkvmerge v62.0.0 ('Apollo') 64-bit
Writing library : libebml v1.4.2 + libmatroska v1.6.4
Video
ID : 1
Format : AVC
Format/Info : Advanced Video Codec
Format profile : High@L4.1
Format settings : CABAC / 12 Ref Frames
Format settings, CABAC : Yes
Format settings, Reference frames : 12 frames
Codec ID : V_MPEG4/ISO/AVC
Duration : 2 h 43 min
Bit rate : 2 300 kb/s
Width : 1 024 pixels
Height : 426 pixels
Display aspect ratio : 2.40:1
Frame rate mode : Constant
Frame rate : 23.976 (24000/1001) FPS
Color space : YUV
Chroma subsampling : 4:2:0
Bit depth : 8 bits
Scan type : Progressive
Bits/(Pixel*Frame) : 0.220
Stream size : 2.62 GiB (69%)
Title : -=[wolf1245.ExKinoRay]=-
Writing library : x264 core 161 r3020 d198931
Encoding settings : cabac=1 / ref=12 / deblock=1:-3:-3 / analyse=0x3:0x133 / me=umh / subme=10 / psy=1 / psy_rd=1.05:0.05 / mixed_ref=1 / me_range=48 / chroma_me=1 / trellis=2 / 8x8dct=1 / cqm=0 / deadzone=21,11 / fast_pskip=1 / chroma_qp_offset=-3 / threads=10 / lookahead_threads=2 / sliced_threads=0 / nr=0 / decimate=0 / interlaced=0 / bluray_compat=0 / constrained_intra=0 / bframes=10 / b_pyramid=2 / b_adapt=2 / b_bias=0 / direct=3 / weightb=1 / open_gop=0 / weightp=2 / keyint=240 / keyint_min=24 / scenecut=40 / intra_refresh=0 / rc_lookahead=60 / rc=2pass / mbtree=0 / bitrate=2300 / ratetol=1.0 / qcomp=0.60 / qpmin=0 / qpmax=69 / qpstep=4 / cplxblur=20.0 / qblur=0.5 / vbv_maxrate=50000 / vbv_bufsize=62500 / nal_hrd=none / filler=0 / ip_ratio=1.40 / pb_ratio=1.30 / aq=1:0.80
Language : English
Default : Yes
Forced : No
Color range : Limited
Color primaries : BT.709
Transfer characteristics : BT.709
Matrix coefficients : BT.709
Audio #1
ID : 2
Format : AC-3
Format/Info : Audio Coding 3
Commercial name : Dolby Digital
Codec ID : A_AC3
Duration : 2 h 43 min
Bit rate mode : Constant
Bit rate : 192 kb/s
Channel(s) : 2 channels
Channel layout : L R
Sampling rate : 48.0 kHz
Frame rate : 31.250 FPS (1536 SPF)
Compression mode : Lossy
Stream size : 224 MiB (6%)
Title : [DUB] Line
Language : Russian
Service kind : Complete Main
Default : Yes
Forced : No
Audio #2
ID : 3
Format : AC-3
Format/Info : Audio Coding 3
Commercial name : Dolby Digital
Codec ID : A_AC3
Duration : 2 h 43 min
Bit rate mode : Constant
Bit rate : 384 kb/s
Channel(s) : 6 channels
Channel layout : L R C LFE Ls Rs
Sampling rate : 48.0 kHz
Frame rate : 31.250 FPS (1536 SPF)
Compression mode : Lossy
Stream size : 449 MiB (12%)
Title : [MVO] Jaskier
Language : Russian
Service kind : Complete Main
Default : No
Forced : No
Audio #3
ID : 4
Format : AC-3
Format/Info : Audio Coding 3
Commercial name : Dolby Digital
Codec ID : A_AC3
Duration : 2 h 43 min
Bit rate mode : Constant
Bit rate : 448 kb/s
Channel(s) : 6 channels
Channel layout : L R C LFE Ls Rs
Sampling rate : 48.0 kHz
Frame rate : 31.250 FPS (1536 SPF)
Compression mode : Lossy
Stream size : 524 MiB (13%)
Title : Original
Language : English
Service kind : Complete Main
Default : Yes
Forced : No
Text #1
ID : 5
Format : UTF-8
Codec ID : S_TEXT/UTF8
Codec ID/Info : UTF-8 Plain Text
Duration : 2 h 36 min
Bit rate : 68 b/s
Count of elements : 1721
Stream size : 78.9 KiB (0%)
Title : [Full [FOCS]]
Language : Russian
Default : No
Forced : No
Text #2
ID : 6
Format : UTF-8
Codec ID : S_TEXT/UTF8
Codec ID/Info : UTF-8 Plain Text
Duration : 2 h 35 min
Bit rate : 42 b/s
Count of elements : 1671
Stream size : 48.4 KiB (0%)
Title : English
Language : English
Default : No
Forced : No
Menu
00:00:00.000 : :Chapter 1
00:11:57.125 : :Chapter 2
00:27:09.750 : :Chapter 3
00:43:46.000 : :Chapter 4
00:56:58.099 : :Chapter 5
01:04:09.000 : :Chapter 6
01:13:06.500 : :Chapter 7
01:22:28.832 : :Chapter 8
01:33:49.332 : :Chapter 9
01:51:42.000 : :Chapter 10
02:06:54.000 : :Chapter 11
02:25:23.500 : :Chapter 12
02:35:07.000 : :Chapter 13
Релиз от:
Автор релиза:
pb.wtf



Скачать Не время умирать через торрент http://lostpix.com/img/2021-11/11/xwty7rtpvlsalk8xmgxfzl3cb.png Скачать, смотреть онлайн Не время умирать бесплантно в хорошем качестве Описание: Джеймс Бонд оставил оперативную службу и наслаждается спокойной жизнью на Ямайке. Все меняется, когда на острове появляется его ... 10 10 6
Торрент: Зарегистрирован [2021-11-11 19:22] · скачан: 88 раз
Статус: T временная
Размер: 3.8 GB
Как cкачать? Как скачать Не время умирать через торрент | UTorrent

28-11-2019 20:33  

Отключить всю рекламу на сайте

    Дорогой пользователь! Огромная просьба, поблагодарите релизера, оцените раздачу и оставьте свои комментарий, если Вы скачали Не время умирать через торрент бесплатно!
    Комментировать посты могут только пользователи прошедшие не сложную регистрацию
    Показать сообщения:    

    Не время умирать через торрент
    Скачать бесплатно Не время умирать
    Не время умирать скачать торрент
    Не время умирать смотреть онлайн
    Cкачать фильм Не время умирать бесплатно
    Не время умирать скачать торрент в хорошем качестве
    Не время умирать смотреть онлайн бесплатно в хорошем качестве


    Вы не можете начинать темы
    Вы не можете отвечать на сообщения
    Вы не можете редактировать свои сообщения
    Вы не можете удалять свои сообщения
    Вы не можете голосовать в опросах
    Вы не можете прикреплять файлы к сообщениям
    Вы можете скачивать файлы