Присоединяйтесь к нам в Telegram!, здесь всегда актуальный адрес сайта, оперативная поддержка и многое другое!!

>

5.9

iTunes

7.4

iTunes

9.4

1 сезон

1

7.4

2 сезон

7.2

iTunes

7.3

1 сезон

13

6.1

iTunes

8.3

GOG

30

ULTIMATE

pack

9.9

Лицензия

ВАЖНО

ИГРА 18+

pack

7.3

RePack

MK11

7.7

RePack

jed

7.8

RePack

fifa19

8.5

RePack

RDR2

RePack

NEED FOR SPEED™ PAYBACK

5 сезон

9 сезон

Бесстыжие 9 сезон

Все сериалы

все сериалы на PB.wtf

RePack

FAR CRY 5

Anonymous, доброй ночи, мы катастрофически не успеваем собрать деньги на оплату серверов, помогите нам пожалуйста 5,10,15р., для нас важна любая помощь . В качестве благодарности мы отключим Вам всю рекламу на сайте (укажите свой ник в строку Ваше имя)!

×
  
Magnet ссылка

Дом на другой стороне / The Night House (Дэвид Брукнер) [2020, Ужасы, детектив, HDRip-AVC] DUB [Невафильм] pb.wtf

Дом на другой стороне через торрент pb.wtf

Раздают: 5 [ 97 KB/s ]
Размер: 2.11 GB | Добавлен: 19 д. назад | Торрент скачан:146 раз
Смотреть онлайн Дом на другой стороне | Скачать    Ребята, помогите собрать деньги на оплату серверов!!!

12-11-2021 07:28 Дом на другой стороне Скачать торрент  

Дом на другой стороне | The Night House
Год выпуска: 2020
Страна: Великобритания, США
Студия: Anton, Phantom Four Film
Жанр: Ужасы, детектив
Продолжительность: 01:47:01
Перевод: Дублированный | Невафильм
Субтитры: Русские (Forced, full)

Режиссер: Дэвид Брукнер

rating

В ролях: Ребекка Холл, Сара Голдберг, Стэйси Мартин, Вонди Куртис-Холл, Эван Йоникит, Элли Маккаллок, Саманта Бак, Энди Рич, Патрик Клейн

Описание: После внезапной смерти мужа Бет осталась одна в доме на берегу озера, который он построил для нее. По ночам Бет отчетливо чувствует в доме присутствие мужа, видит тени и следы его присутствия, которые исчезают с утренним светом. Пытаясь понять происходящее, Бет начинает изучать вещи, оставшиеся после смерти любимого человека, и находит ужасную тайну, которую он скрывал от нее. «Дом на другой стороне» — психологический фильм ужасов о призраках с Ребеккой Холл в главной роли.

Качество: HDRip-AVC
Формат: MKV

Видео: MPEG-4 AVC, 2367 Кбит/с, 1024x426, 23.976 fps
Аудио: 48 kHz, AC3, 5.1, 448 Kbps | Дублированный | Невафильм | RUS |
скриншот  скриншот  скриншот  скриншот  скриншот  

Общее
Уникальный идентификатор : 259619789938393965848324080603386749749 (0xC350F3E810C1177CC7F164DDA0D62335)
Полное имя : E:TorrentsThe.Night.House.2020.HDRip-AVC_JNS82.mkv
Формат : Matroska
Версия формата : Version 4
Размер файла : 2,11 Гбайт
Продолжительность : 1 ч. 47 м.
Общий поток : 2 809 Кбит/сек
Название фильма : The.Night.House.2020.HDRip-AVC_JNS82
Дата кодирования : UTC 2021-11-12 07:00:54
Программа кодирования : mkvmerge v59.0.0 ('Shining Star') 64-bit
Библиотека кодирования : libebml v1.4.2 + libmatroska v1.6.4

Видео
Идентификатор : 1
Формат : AVC
Формат/Информация : Advanced Video Codec
Профиль формата : High@L4.1
Настройки формата : CABAC / 12 Ref Frames
Параметр CABAC формата : Да
Параметр RefFrames формата : 12 кадров
Идентификатор кодека : V_MPEG4/ISO/AVC
Продолжительность : 1 ч. 47 м.
Битрейт : 2 367 Кбит/сек
Ширина : 1 024 пикселя
Высота : 426 пикселей
Соотношение сторон : 2,40:1
Режим частоты кадров : Постоянный
Частота кадров : 23,976 (24000/1001) кадра/сек
Цветовое пространство : YUV
Субдискретизация насыщенности : 4:2:0
Битовая глубина : 8 бит
Тип развёртки : Прогрессивная
Бит/(Пиксели*Кадры) : 0.226
Размер потока : 1,77 Гбайт (84%)
Библиотека кодирования : x264 core 157 r2958 57baac4
Настройки программы : cabac=1 / ref=12 / deblock=1:-3:-3 / analyse=0x3:0x113 / me=umh / subme=9 / psy=1 / psy_rd=1.00:0.05 / mixed_ref=1 / me_range=32 / chroma_me=1 / trellis=1 / 8x8dct=1 / cqm=0 / deadzone=21,11 / fast_pskip=0 / chroma_qp_offset=-3 / threads=8 / lookahead_threads=2 / sliced_threads=0 / nr=0 / decimate=0 / interlaced=0 / bluray_compat=0 / constrained_intra=0 / bframes=12 / b_pyramid=2 / b_adapt=2 / b_bias=0 / direct=3 / weightb=1 / open_gop=0 / weightp=2 / keyint=240 / keyint_min=24 / scenecut=40 / intra_refresh=0 / rc=2pass / mbtree=0 / bitrate=2367 / ratetol=1.0 / qcomp=0.60 / qpmin=0 / qpmax=69 / qpstep=4 / cplxblur=20.0 / qblur=0.5 / ip_ratio=1.40 / pb_ratio=1.30 / aq=1:1.00
Язык : English
Default : Да
Forced : Нет
Цветовой диапазон : Limited
Основные цвета : BT.709
Коэффициенты матрицы : BT.709

Аудио
Идентификатор : 2
Формат : AC-3
Формат/Информация : Audio Coding 3
Коммерческое название : Dolby Digital
Идентификатор кодека : A_AC3
Продолжительность : 1 ч. 47 м.
Вид битрейта : Постоянный
Битрейт : 448 Кбит/сек
Каналы : 6 каналов
Channel layout : L R C LFE Ls Rs
Частота : 48,0 КГц
Частота кадров : 31,250 кадров/сек (1536 SPF)
Метод сжатия : С потерями
Размер потока : 344 Мбайт (16%)
Заголовок : [DUB] Невафильм
Язык : Russian
Service kind : Complete Main
Default : Да
Forced : Нет

Текст #1
Идентификатор : 3
Формат : UTF-8
Идентификатор кодека : S_TEXT/UTF8
Идентификатор кодека/Информация : UTF-8 Plain Text
Продолжительность : 1 ч. 26 м.
Битрейт : 2 бит/сек
Count of elements : 38
Размер потока : 1,61 Кбайт (0%)
Заголовок : forced
Язык : Russian
Default : Да
Forced : Нет

Текст #2
Идентификатор : 4
Формат : UTF-8
Идентификатор кодека : S_TEXT/UTF8
Идентификатор кодека/Информация : UTF-8 Plain Text
Продолжительность : 1 ч. 39 м.
Битрейт : 50 бит/сек
Count of elements : 815
Размер потока : 36,3 Кбайт (0%)
Заголовок : full
Язык : Russian
Default : Нет
Forced : Нет

Меню
00:00:00.000 : :Chapter 01
00:03:41.388 : :Chapter 02
00:08:08.780 : :Chapter 03
00:15:38.271 : :Chapter 04
00:21:15.483 : :Chapter 05
00:24:03.609 : :Chapter 06
00:33:32.636 : :Chapter 07
00:38:48.117 : :Chapter 08
00:42:51.778 : :Chapter 09
00:47:48.699 : :Chapter 10
00:52:50.250 : :Chapter 11
00:56:07.239 : :Chapter 12
01:00:40.804 : :Chapter 13
01:05:21.251 : :Chapter 14
01:09:02.846 : :Chapter 15
01:14:59.453 : :Chapter 16
01:18:13.022 : :Chapter 17
01:23:28.879 : :Chapter 18
01:27:40.297 : :Chapter 19
01:32:13.862 : :Chapter 20
01:33:52.919 : :Chapter 21
01:35:02.363 : :Chapter 22
01:39:19.537 : :Chapter 23
01:41:26.580 : :Chapter 24

pb.wtf



Скачать Дом на другой стороне через торрент https://i115.fastpic.org/big/2021/1014/1f/0846511e7b0566a4d08fad0957ed6d1f.jpg Скачать, смотреть онлайн Дом на другой стороне бесплантно в хорошем качестве Описание: После внезапной смерти мужа Бет осталась одна в доме на берегу озера, который он построил для нее. По ночам Бет отчетливо ... 9.1 10 8
Торрент: Зарегистрирован [2021-11-12 07:28] · скачан: 146 раз
Статус: √ проверено
Размер: 2.11 GB
Как cкачать? Как скачать Дом на другой стороне через торрент | UTorrent

% Раздел Тема Автор DL S | L
Фильмы 2019-2020 [DVDrip, WEB-DLRip, HDrip] (DUB, MVO) [ 1.46 GB ] Дом на другой стороне / The Night House [2020 BDRip] - [ / Невафильм] Twi7ter Скачать
46 | 1
Фильмы 2019-2020 [DVDrip, WEB-DLRip, HDrip] (DUB, MVO) [ 2.65 GB ] Дом на другой стороне / The Night House [2020 BDRip-AVC] DUB [Невафильм] от ExKinoRay Lithuania Скачать
6 | 0
Фильмы [HD 720p, 1080p] (Хороший звук DUB, MVO) [ 12.21 GB ] Дом на другой стороне / The Night House [2020 BDRip 1080p] DUB [Невафильм] bober100 Скачать
13 | 0
Фильмы (Blu-ray, BD-Remux, HDDVD) [ 29.64 GB ] Дом на другой стороне / The Night House [2020 BD Remux 1080p] DUB [Невафильм] bober100 Скачать
4 | 0
Фильмы [HD 720p, 1080p] (Хороший звук DUB, MVO) [ 6.36 GB ] Дом на другой стороне / The Night House [2020 BDRip 720p] DUB [Невафильм] bober100 Скачать
8 | 0
Фильмы 2019-2020 [DVDrip, WEB-DLRip, HDrip] (DUB, MVO) [ 1.46 GB ] Дом на другой стороне / The Night House [2020 BDRip] DUB [Невафильм] bober100 Скачать
5 | 0

28-11-2019 20:33  

Отключить всю рекламу на сайте

13-11-2021 15:32 Дом на другой стороне Скачать торрент  

ХЕРНЯ ПОЛНАЯ НЕ ДАЖЕ НЕ СМОТРИТЕpb.wtf



14-11-2021 07:06 Дом на другой стороне Скачать торрент  

Раз посмотреть можно.pb.wtf



    Дорогой пользователь! Огромная просьба, поблагодарите релизера, оцените раздачу и оставьте свои комментарий, если Вы скачали Дом на другой стороне через торрент бесплатно!
    Комментировать посты могут только пользователи прошедшие не сложную регистрацию
    Показать сообщения:    

    Дом на другой стороне через торрент
    Скачать бесплатно Дом на другой стороне
    Дом на другой стороне скачать торрент
    Дом на другой стороне смотреть онлайн
    Cкачать фильм Дом на другой стороне бесплатно
    Дом на другой стороне скачать торрент в хорошем качестве
    Дом на другой стороне смотреть онлайн бесплатно в хорошем качестве


    Вы не можете начинать темы
    Вы не можете отвечать на сообщения
    Вы не можете редактировать свои сообщения
    Вы не можете удалять свои сообщения
    Вы не можете голосовать в опросах
    Вы не можете прикреплять файлы к сообщениям
    Вы можете скачивать файлы