Присоединяйтесь к нам в Telegram!, здесь всегда актуальный адрес сайта, оперативная поддержка и многое другое!!

>

5.9

iTunes

7.4

iTunes

9.4

1 сезон

1

7.4

2 сезон

7.2

iTunes

7.3

1 сезон

13

6.1

iTunes

8.3

GOG

30

ULTIMATE

pack

9.9

Лицензия

ВАЖНО

ИГРА 18+

pack

7.3

RePack

MK11

7.7

RePack

jed

7.8

RePack

fifa19

8.5

RePack

RDR2

RePack

NEED FOR SPEED™ PAYBACK

5 сезон

9 сезон

Бесстыжие 9 сезон

Все сериалы

все сериалы на PB.wtf

RePack

FAR CRY 5

Anonymous, доброй ночи, мы катастрофически не успеваем собрать деньги на оплату серверов, помогите нам пожалуйста 5,10,15р., для нас важна любая помощь . В качестве благодарности мы отключим Вам всю рекламу на сайте (укажите свой ник в строку Ваше имя)!

×
  
Magnet ссылка

Шан-Чи и легенда десяти колец / Shang-Chi and the Legend of the Ten Rings (Дестин Дэниел Креттон) [2021, фантастика, фэнтези, боевик, BDRip-AVC] Dub [КиноПоиск HD] pb.wtf

Шан-Чи и легенда десяти колец через торрент pb.wtf

Раздают: 213 [ 395 KB/s ] Качают: 47 [ 0 KB/s ]
Размер: 1.43 GB | Добавлен: 17 д. назад | Торрент скачан:469 раз
Смотреть онлайн Шан-Чи и легенда десяти колец | Скачать    Ребята, помогите собрать деньги на оплату серверов!!!

12-11-2021 10:42 Шан-Чи и легенда десяти колец Скачать торрент  

Шан-Чи и легенда десяти колец
Shang-Chi and the Legend of the Ten Rings

«A Marvel legend will rise»

Страна: США, Австралия
Жанр: фантастика, фэнтези, боевик, приключения
Год выпуска: 2021
Продолжительность: 02:12:20

Перевод: Профессиональный (полное дублирование) [Невафильм / КиноПоиск HD]
Субтитры: русские (форсированные, полные)
Оригинальная аудиодорожка: нет

Режиссер: Дестин Дэниел Креттон / Destin Daniel Cretton

В ролях: Симу Лю, Тони Люн Чу Вай, Аквафина, Мишель Йео, Чжан Мэнъэр, Чэнь Фала, Ронни Чиэн, Флориан Мунтяну, Бен Кингсли, Юэнь Ва

Описание: Мастеру боевых искусств Шан-Чи предстоит противостоять призракам из собственного прошлого, по мере того как его втягивают в паутину интриг таинственной организации «Десять колец».



Релиз:

Автор рипа: stalkerok

Сэмпл

Качество видео: BDRip-AVC | Исходник: Shang-Chi.and.the.Legend.of.the.Ten.Rings.2021.1080p.BluRay.Remux_TeamHD
Формат видео: MKV
Видео кодек: AVC
Аудио кодек: AAC
Видео: AVC, 1288 Кбит/сек, 874x366 (2.40:1), 23,976 кадр/сек
Аудио: AAC, 256 Кбит/сек, 48 КГц, 5.1 - русский
Навигация по главам: есть
---[Information] [12.11.2021 13:20:07] x264 [info]: frame I:1583 Avg QP:16.74 size: 41311
---[Information] [12.11.2021 13:20:07] x264 [info]: frame P:45903 Avg QP:19.16 size: 13673
---[Information] [12.11.2021 13:20:07] x264 [info]: frame B:142900 Avg QP:21.72 size: 4103
---[Information] [12.11.2021 13:20:07] x264 [info]: consecutive B-frames: 3.1% 3.7% 10.7% 31.6% 17.7% 21.0% 5.0% 2.5% 1.3% 0.8% 0.7% 0.8% 0.4% 0.3% 0.3%

General
Unique ID : 91036556477276779503007221463960598945 (0x447D00C59D281B1070CF5E854C7D39A1)
Complete name : J:\Shang-Chi.and.the.Legend.of.the.Ten.Rings.2021\Shang-Chi.and.the.Legend.of.the.Ten.Rings.2021.BDRip.x264.Rus.stalkerok.New-Team.mkv
Format : Matroska
Format version : Version 4 / Version 2
File size : 1.43 GiB
Duration : 2 h 12 min
Overall bit rate : 1 547 kb/s
Movie name : Shang-Chi and the Legend of the Ten Rings (2021) | Rip by stalkerok
Encoded date : UTC 2021-11-12 10:30:00
Writing application : mkvmerge v62.0.0 ('Apollo') 64-bit
Writing library : libebml v1.4.2 + libmatroska v1.6.4

Video
ID : 1
Format : AVC
Format/Info : Advanced Video Codec
Format profile : High@L4.1
Format settings, CABAC : Yes
Format settings, ReFrames : 12 frames
Codec ID : V_MPEG4/ISO/AVC
Duration : 2 h 12 min
Bit rate : 1 289 kb/s
Width : 874 pixels
Height : 366 pixels
Display aspect ratio : 2.40:1
Frame rate mode : Constant
Frame rate : 23.976 (24000/1001) FPS
Color space : YUV
Chroma subsampling : 4:2:0
Bit depth : 8 bits
Scan type : Progressive
Bits/(Pixel*Frame) : 0.168
Stream size : 1.19 GiB (83%)
Writing library : x264 core 164 r3065+55M 280faca t_mod_New [(8 & 10)-bit@all X86_64]
Encoding settings : cabac=1 / ref=12 / deblock=1:-3:-2 / analyse=0x3:0x133 / me=umh / subme=10 / psy=1 / fade_compensate=0.00 / psy_rd=1.00:0.00 / mixed_ref=1 / me_range=32 / chroma_me=1 / trellis=2 / 8x8dct=1 / cqm=0 / deadzone=21,11 / fast_pskip=0 / chroma_qp_offset=-2 / threads=11 / lookahead_threads=2 / sliced_threads=0 / nr=0 / decimate=1 / interlaced=0 / bluray_compat=0 / constrained_intra=0 / fgo=0 / bframes=14 / b_pyramid=2 / b_adapt=2 / b_bias=0 / direct=3 / weightb=1 / open_gop=0 / weightp=2 / keyint=240 / keyint_min=23 / scenecut=40 / intra_refresh=0 / rc_lookahead=60 / rc=crf / mbtree=0 / crf=19.0000 / qcomp=0.65 / qpmin=0:0:0 / qpmax=69:69:69 / qpstep=4 / vbv_maxrate=50000 / vbv_bufsize=62500 / crf_max=0.0 / nal_hrd=none / filler=0 / ip_ratio=1.40 / pb_ratio=1.30 / aq=3:0.90 / aq-sensitivity=10.00 / aq-factor=1.00:1.00:1.00 / aq2=0 / aq3=0
Default : Yes
Forced : No

Audio
ID : 2
Format : AAC
Format/Info : Advanced Audio Codec
Format profile : LC
Codec ID : A_AAC
Duration : 2 h 12 min
Bit rate : 256 kb/s
Channel(s) : 6 channels
Channel positions : Front: L C R, Side: L R, LFE
Sampling rate : 48.0 kHz
Frame rate : 46.875 FPS (1024 spf)
Compression mode : Lossy
Delay relative to video : 9 ms
Stream size : 242 MiB (17%)
Language : Russian
Default : Yes
Forced : No

Text #1
ID : 3
Format : UTF-8
Codec ID : S_TEXT/UTF8
Codec ID/Info : UTF-8 Plain Text
Duration : 2 h 8 min
Bit rate : 7 b/s
Count of elements : 168
Stream size : 6.98 KiB (0%)
Title : Forced
Language : Russian
Default : Yes
Forced : No

Text #2
ID : 4
Format : UTF-8
Codec ID : S_TEXT/UTF8
Codec ID/Info : UTF-8 Plain Text
Duration : 2 h 10 min
Bit rate : 52 b/s
Count of elements : 950
Stream size : 50.0 KiB (0%)
Title : Full | KP
Language : Russian
Default : No
Forced : No

Menu
00:00:00.000 : en:Chapter 01
00:03:52.858 : en:Chapter 02
00:09:28.985 : en:Chapter 03
00:16:17.185 : en:Chapter 04
00:22:47.491 : en:Chapter 05
00:31:59.668 : en:Chapter 06
00:42:49.484 : en:Chapter 07
00:52:21.055 : en:Chapter 08
00:56:51.325 : en:Chapter 09
01:00:35.006 : en:Chapter 10
01:08:46.122 : en:Chapter 11
01:15:55.050 : en:Chapter 12
01:19:51.286 : en:Chapter 13
01:29:49.676 : en:Chapter 14
01:36:45.800 : en:Chapter 15
01:47:00.623 : en:Chapter 16
01:55:25.293 : en:Chapter 17
02:00:07.242 : en:Chapter 18
02:01:46.132 : en:Chapter 19
02:04:08.858 : en:Chapter 20
02:10:39.248 : en:Chapter 21
pb.wtf



Скачать Шан-Чи и легенда десяти колец через торрент http://i6.imageban.ru/out/2017/09/18/2ff75c0c358795c5946784cc1680714d.png Скачать, смотреть онлайн Шан-Чи и легенда десяти колец бесплантно в хорошем качестве Описание: Мастеру боевых искусств Шан-Чи предстоит противостоять призракам из собственного прошлого, по мере того как его втягивают в ... 10 10 16
Info! Золотая раздача, скачанное не засчитывается.
Торрент: Зарегистрирован [2021-11-12 10:42] · скачан: 469 раз
Статус: √ проверено
Размер: 1.43 GB
Как cкачать? Как скачать Шан-Чи и легенда десяти колец через торрент | UTorrent

% Раздел Тема Автор DL S | L
Фильмы 2021 [DVDrip, WEB-DLRip, HDrip] (DUB, MVO) [ 1.46 GB ] Шан-Чи и легенда десяти колец / Shang-Chi and the Legend of the Ten Rings [2021 BDRip] - [ / Невафильм] Twi7ter Скачать
760 | 62
Ultra HD (UHD: 2K, 4K, 8K) — видео сверхвысокой чёткости [ 16.86 GB ] Шан-Чи и легенда десяти колец / Shang-Chi and the Legend of the Ten Rings [2021 UHD WEB-DL-HEVC 2160p ] DUB [Невафильм] bober100 Скачать
13 | 0
Фильмы [HD 720p, 1080p] (Хороший звук DUB, MVO) [ 12.51 GB ] Шан-Чи и легенда десяти колец / Shang-Chi and the Legend of the Ten Rings [2021 BDRip 1080p] DUB [Невафильм] bober100 Скачать
26 | 0
Фильмы (WEB-DL 720p, 1080p) [ 8.04 GB ] Шан-Чи и легенда десяти колец / Shang-Chi and the Legend of the Ten Rings [2021 WEB-DL 1080p ] DUB [Невафильм] bober100 Скачать
29 | 0
Фильмы 2021 [DVDrip, WEB-DLRip, HDrip] (DUB, MVO) [ 1.42 GB ] Шан-Чи и легенда десяти колец / Shang-Chi and the Legend of the Ten Rings [2021 WEB-DLRip-AVC] [Локализованный видеоряд] Dub [КиноПоиск HD] sokol_ok Скачать
175 | 7
Фильмы [HD 720p, 1080p] (Хороший звук DUB, MVO) [ 4.48 GB ] Шан-Чи и легенда десяти колец / Shang-Chi and the Legend of the Ten Rings [2021 BDRip 1080p] + [Ukr DUB] killermax2013 Скачать
23 | 0
Фильмы 2021 [DVDrip, WEB-DLRip, HDrip] (DUB, MVO) [ 2.87 GB ] Шан-Чи и легенда десяти колец / Shang-Chi and the Legend of the Ten Rings [2021 WEB-DLRip-AVC] [IMAX Edition] Dub [КиноПоиск HD] sokol_ok Скачать
215 | 1

28-11-2019 20:33  

Отключить всю рекламу на сайте

12-11-2021 22:19 Шан-Чи и легенда десяти колец Скачать торрент  

Обычная сказочка про белого бычка. Играю щас в Horizon Zero Dawn , глянул мельком эту хрень и удивляюсь насколько щас стали фильмы делать хуже чем игры.Причём и по сценарию и по графике проигрывают. А метро эксодус помните ?Ваще улёт игруляpb.wtf





Последний раз редактировалось: pirotehnik771 (2021-11-15 09:01), всего редактировалось 1 раз

14-11-2021 10:17 Шан-Чи и легенда десяти колец Скачать торрент  

Ш-шляпа. Для детей, думаю, норм зайдетpb.wtf



    Дорогой пользователь! Огромная просьба, поблагодарите релизера, оцените раздачу и оставьте свои комментарий, если Вы скачали Шан-Чи и легенда десяти колец через торрент бесплатно!
    Комментировать посты могут только пользователи прошедшие не сложную регистрацию
    Показать сообщения:    

    Шан-Чи и легенда десяти колец через торрент
    Скачать бесплатно Шан-Чи и легенда десяти колец
    Шан-Чи и легенда десяти колец скачать торрент
    Шан-Чи и легенда десяти колец смотреть онлайн
    Cкачать фильм Шан-Чи и легенда десяти колец бесплатно
    Шан-Чи и легенда десяти колец скачать торрент в хорошем качестве
    Шан-Чи и легенда десяти колец смотреть онлайн бесплатно в хорошем качестве


    Вы не можете начинать темы
    Вы не можете отвечать на сообщения
    Вы не можете редактировать свои сообщения
    Вы не можете удалять свои сообщения
    Вы не можете голосовать в опросах
    Вы не можете прикреплять файлы к сообщениям
    Вы можете скачивать файлы