Присоединяйтесь к нам в Telegram!, здесь всегда актуальный адрес сайта, оперативная поддержка и многое другое!!

>

5.9

iTunes

7.4

iTunes

9.4

1 сезон

1

7.4

2 сезон

7.2

iTunes

7.3

1 сезон

13

6.1

iTunes

8.3

GOG

30

ULTIMATE

pack

9.9

Лицензия

ВАЖНО

ИГРА 18+

pack

7.3

RePack

MK11

7.7

RePack

jed

7.8

RePack

fifa19

8.5

RePack

RDR2

RePack

NEED FOR SPEED™ PAYBACK

5 сезон

9 сезон

Бесстыжие 9 сезон

Все сериалы

все сериалы на PB.wtf

RePack

FAR CRY 5

Anonymous, доброе утро, мы катастрофически не успеваем собрать деньги на оплату серверов, помогите нам пожалуйста 5,10,15р., для нас важна любая помощь . В качестве благодарности мы отключим Вам всю рекламу на сайте (укажите свой ник в строку Ваше имя)!

×
  
Magnet ссылка

Красное уведомление / Red Notice (Роусон Маршалл Тёрбер) [2021, Боевик, триллер, комедия, криминал, WEB-DLRip-AVC] DUB [Пифагор / Netflix] pb.wtf

Красное уведомление через торрент pb.wtf

Раздают: 15 [ 110 KB/s ] Качают: 1 [ 1 MB/s ]
Размер: 1.45 GB | Добавлен: 19 д. назад | Торрент скачан:248 раз
Смотреть онлайн Красное уведомление | Скачать    Ребята, помогите собрать деньги на оплату серверов!!!

12-11-2021 11:21 Красное уведомление Скачать торрент  

Красное уведомление | Red Notice
Год выпуска: 2021
Страна: США
Выпущено: Flynn Picture Company, Legendary Entertainment, Seven Bucks Productions
Жанр: Боевик, триллер, комедия, криминал
Продолжительность: 01:57:59
Перевод: Дублированный | Пифагор по заказу Netflix
Субтитры: Русские (Forced, Full), украинские (Forced, Full), английские (Forced, SDH)

Режиссер: Роусон Маршалл Тёрбер

rating

В ролях: Дуэйн Джонсон, Райан Рейнольдс, Галь Гадот, Крис Диамантополос, Риту Эрийа, Винченцо Амато, Рафаэль Петарди

Описание: Красное уведомление — это международный сигнал тревоги Интерпола, призывающий начать охоту на особо опасных преступников. Агент ФБР преследует самого разыскиваемого в мире вора картин, но становится его невольным соучастником в попытке поймать мошенника, который всегда на шаг впереди.

Качество: WEB-DLRip-AVC
Формат: MKV

Видео: MPEG-4 AVC, 1024x428 at 24.000 fps, x264@L4.1, ~1378 kbps
Аудио: 48 kHz, AC3 Dolby Digital, 3/2 (L, C, R, l, r) + LFE ch, ~384 Kbps
скриншот  скриншот  скриншот  скриншот  скриншот  

x264 [info]: frame I:1680 Avg QP:14.72 size: 49629
x264 [info]: frame P:44286 Avg QP:18.27 size: 14477
x264 [info]: frame B:123929 Avg QP:20.12 size: 3982

General
Unique ID : 122136794978808760552652769663194906644 (0x5BE2B0EA5D4A95D81301BB87A9824014)
Complete name : B:Red.Notice.2021.NF.WEB-DLRip-AVC.mkv
Format : Matroska
Format version : Version 4
File size : 1.45 GiB
Duration : 1 h 57 min
Overall bit rate : 1 763 kb/s
Encoded date : UTC 2021-11-12 11:12:41
Writing application : mkvmerge v62.0.0 ('Apollo') 64-bit
Writing library : libebml v1.4.2 + libmatroska v1.6.4
Cover : Yes
Attachments : cover.jpg / cover 2.jpg

Video
ID : 1
Format : AVC
Format/Info : Advanced Video Codec
Format profile : High@L4.1
Format settings : CABAC / 12 Ref Frames
Format settings, CABAC : Yes
Format settings, Reference : 12 frames
Codec ID : V_MPEG4/ISO/AVC
Duration : 1 h 57 min
Bit rate : 1 378 kb/s
Width : 1 024 pixels
Height : 428 pixels
Display aspect ratio : 2.40:1
Frame rate mode : Constant
Frame rate : 24.000 FPS
Color space : YUV
Chroma subsampling : 4:2:0
Bit depth : 8 bits
Scan type : Progressive
Bits/(Pixel*Frame) : 0.131
Stream size : 1.13 GiB (78%)
Title : -=DoMiNo=-
Writing library : x264 core 164 r3075+55M 97d28bb t_mod_New [(8 & 10)-bit@all X86_64]
Encoding settings : cabac=1 / ref=12 / deblock=1:-2:-2 / analyse=0x3:0x133 / me=umh / subme=10 / psy=1 / fade_compensate=0.00 / psy_rd=1.07:0.15 / mixed_ref=1 / me_range=32 / chroma_me=1 / trellis=2 / 8x8dct=1 / cqm=0 / deadzone=21,11 / fast_pskip=0 / chroma_qp_offset=-3 / threads=24 / lookahead_threads=3 / sliced_threads=0 / nr=0 / decimate=0 / interlaced=0 / bluray_compat=0 / constrained_intra=0 / fgo=0 / bframes=12 / b_pyramid=2 / b_adapt=2 / b_bias=0 / direct=3 / weightb=1 / open_gop=0 / weightp=2 / keyint=250 / keyint_min=23 / scenecut=40 / intra_refresh=0 / rc_lookahead=60 / rc=2pass / mbtree=0 / bitrate=1378 / ratetol=1.0 / qcomp=0.70 / qpmin=0:0:0 / qpmax=69:69:69 / qpstep=4 / cplxblur=20.0 / qblur=0.5 / vbv_maxrate=50000 / vbv_bufsize=62500 / nal_hrd=none / filler=0 / ip_ratio=1.40 / pb_ratio=1.30 / aq=2:0.90 / aq-sensitivity=10.00 / aq-factor=1.00:1.00:1.00 / aq2=0 / aq3=0
Language : English
Default : Yes
Forced : No

Audio
ID : 2
Format : AC-3
Format/Info : Audio Coding 3
Commercial name : Dolby Digital
Codec ID : A_AC3
Duration : 1 h 57 min
Bit rate mode : Constant
Bit rate : 384 kb/s
Channel(s) : 6 channels
Channel layout : L R C LFE Ls Rs
Sampling rate : 48.0 kHz
Frame rate : 31.250 FPS (1536 SPF)
Compression mode : Lossy
Stream size : 324 MiB (22%)
Title : AC3
Language : Russian
Service kind : Complete Main
Default : Yes
Forced : Yes

Text #1
ID : 3
Format : UTF-8
Codec ID : S_TEXT/UTF8
Codec ID/Info : UTF-8 Plain Text
Duration : 1 h 55 min
Bit rate : 2 b/s
Count of elements : 51
Stream size : 1.72 KiB (0%)
Title : Forced
Language : Russian
Default : Yes
Forced : Yes

Text #2
ID : 4
Format : UTF-8
Codec ID : S_TEXT/UTF8
Codec ID/Info : UTF-8 Plain Text
Duration : 1 h 55 min
Bit rate : 80 b/s
Count of elements : 1385
Stream size : 67.4 KiB (0%)
Language : Russian
Default : No
Forced : No

Text #3
ID : 5
Format : UTF-8
Codec ID : S_TEXT/UTF8
Codec ID/Info : UTF-8 Plain Text
Duration : 1 h 55 min
Bit rate : 2 b/s
Count of elements : 63
Stream size : 2.30 KiB (0%)
Title : Forced
Language : Ukrainian
Default : No
Forced : No

Text #4
ID : 6
Format : UTF-8
Codec ID : S_TEXT/UTF8
Codec ID/Info : UTF-8 Plain Text
Duration : 1 h 55 min
Bit rate : 84 b/s
Count of elements : 1410
Stream size : 71.0 KiB (0%)
Language : Ukrainian
Default : No
Forced : No

Text #5
ID : 7
Format : UTF-8
Codec ID : S_TEXT/UTF8
Codec ID/Info : UTF-8 Plain Text
Duration : 1 h 38 min
Bit rate : 1 b/s
Count of elements : 33
Stream size : 816 Bytes (0%)
Title : Forced
Language : English
Default : No
Forced : No

Text #6
ID : 8
Format : UTF-8
Codec ID : S_TEXT/UTF8
Codec ID/Info : UTF-8 Plain Text
Duration : 1 h 54 min
Bit rate : 68 b/s
Count of elements : 1718
Stream size : 57.6 KiB (0%)
Title : SDH
Language : English
Default : No
Forced : No

pb.wtf



Скачать Красное уведомление через торрент https://i116.fastpic.org/big/2021/1112/db/d14c449120c523c8a277187e46f40bdb.jpg Скачать, смотреть онлайн Красное уведомление бесплантно в хорошем качестве Описание: Красное уведомление — это международный сигнал тревоги Интерпола, призывающий начать охоту на особо опасных преступников. Агент ... 10 10 14
Info! Золотая раздача, скачанное не засчитывается.
Торрент: Зарегистрирован [2021-11-12 11:21] · скачан: 248 раз
Статус: √ проверено
Размер: 1.45 GB
Как cкачать? Как скачать Красное уведомление через торрент | UTorrent

% Раздел Тема Автор DL S | L
Фильмы 2021 [DVDrip, WEB-DLRip, HDrip] (DUB, MVO) [ 1.46 GB ] Красное уведомление / Red Notice [2021 WEB-DLRip] - [ / Netflix] Twi7ter Скачать
518 | 20
Фильмы 2021 [DVDrip, WEB-DLRip, HDrip] (DUB, MVO) [ 2.18 GB ] Красное уведомление / Red Notice [2021 WEB-DLRip] - [ / Netflix] Twi7ter Скачать
222 | 4
Фильмы (WEB-DL 720p, 1080p) [ 4.52 GB ] Красное уведомление / Red Notice [2021 WEB-DL 1080p] DUB [Пифагор / Netflix] bober100 Скачать
2350 | 118
Фильмы 2021 [DVDrip, WEB-DLRip, HDrip] (DUB, MVO) [ 2.22 GB ] Красное уведомление / Red Notice [2021 WEB-DLRip-AVC] Dub [Netflix] sokol_ok Скачать
247 | 2
Фильмы (WEB-DL 720p, 1080p) [ 6.4 GB ] Красное уведомление / Red Notice [2021 WEB-DL-HEVC 1080p ] DUB [Пифагор / Netflix] bober100 Скачать
45 | 0
Фильмы 2021 [DVDrip, WEB-DLRip, HDrip] (DUB, MVO) [ 748 MB ] Красное уведомление / Red Notice [2021 WEB-DLRip] DUB [Пифагор / Netflix] bober100 Скачать
3 | 0
Фильмы 2021 [DVDrip, WEB-DLRip, HDrip] (DUB, MVO) [ 1.51 GB ] Красное уведомление / Red Notice [2021 WEB-DLRip-AVC] Dub [Netflix] sokol_ok Скачать
277 | 3

28-11-2019 20:33  

Отключить всю рекламу на сайте

    Дорогой пользователь! Огромная просьба, поблагодарите релизера, оцените раздачу и оставьте свои комментарий, если Вы скачали Красное уведомление через торрент бесплатно!
    Комментировать посты могут только пользователи прошедшие не сложную регистрацию
    Показать сообщения:    

    Красное уведомление через торрент
    Скачать бесплатно Красное уведомление
    Красное уведомление скачать торрент
    Красное уведомление смотреть онлайн
    Cкачать фильм Красное уведомление бесплатно
    Красное уведомление скачать торрент в хорошем качестве
    Красное уведомление смотреть онлайн бесплатно в хорошем качестве


    Вы не можете начинать темы
    Вы не можете отвечать на сообщения
    Вы не можете редактировать свои сообщения
    Вы не можете удалять свои сообщения
    Вы не можете голосовать в опросах
    Вы не можете прикреплять файлы к сообщениям
    Вы можете скачивать файлы