Присоединяйтесь к нам в Telegram!, здесь всегда актуальный адрес сайта, оперативная поддержка и многое другое!!

>

5.9

iTunes

7.4

iTunes

9.4

1 сезон

1

7.4

2 сезон

7.2

iTunes

7.3

1 сезон

13

6.1

iTunes

8.3

GOG

30

ULTIMATE

pack

9.9

Лицензия

ВАЖНО

ИГРА 18+

pack

7.3

RePack

MK11

7.7

RePack

jed

7.8

RePack

fifa19

8.5

RePack

RDR2

RePack

NEED FOR SPEED™ PAYBACK

5 сезон

9 сезон

Бесстыжие 9 сезон

Все сериалы

все сериалы на PB.wtf

RePack

FAR CRY 5

Anonymous, доброй ночи, мы катастрофически не успеваем собрать деньги на оплату серверов, помогите нам пожалуйста 5,10,15р., для нас важна любая помощь . В качестве благодарности мы отключим Вам всю рекламу на сайте (укажите свой ник в строку Ваше имя)!

×
  
Magnet ссылка

Не время любить / Akik maradtak (Барнабаш Тот) [2019 г., драма, WEB-DLRip, Профессиональный многоголосый закадровый "iTunes"] pb.wtf

Не время любить через торрент pb.wtf

Раздают: 1 [ 0 KB/s ]
Размер: 703 MB | Добавлен: 19 д. назад | Торрент скачан:16 раз
Смотреть онлайн Не время любить | Скачать    Ребята, помогите собрать деньги на оплату серверов!!!

12-11-2021 18:35 Не время любить Скачать торрент  

Не время любить / Akik maradtak
Год выпуска: 2019
Страна: Венгрия / Inforg-M&M Film Kft.
Жанр: драма
Продолжительность: 01:23:43
Перевод: Профессиональный многоголосый закадровый (iTunes)
«После Второй мировой войны одинокий мужчина и девочка-подросток-сирота находят свой путь к жизни через любовь»

Режиссер: Барнабаш Тот

rating

В ролях: Карой Хайдук, Абигель Сёке, Мари Надь, Барнабаш Хоркаи, Каталин Симко, Андор Лукач, Юдит Маросвольдьи, Жолт Зайзон, Адель Йордан, Луиза Эмма Тот

Описание: 42-летний Альдо живет уединенной жизнью в Будапеште. Родители 16-летней Клары погибли в концентрационном лагере, и ее воспитывает тётя, которая совсем не понимает взрослеющего подростка. Клара встречает Альдо, и вскоре эти двое непохожих находят друг в друге душевное тепло, которое, казалось, война выжгла навечно. Нежные отношения пугают самих героев и общество вокруг.

Качество: WEB-DLRip
Формат: AVI
Видео кодек: DivX
Аудио кодек: MP3
Видео: 640x272 (2.35:1), 25 fps, DivX Codec 4.x ~1035 kbps avg, 0.24 bit/pixel
Аудио: 48 kHz, MPEG Layer 3, 2 ch, ~128.00 kbps avg
Общее
Полное имя : G:\ФИЛЬМЫ\Не время любить.2019.WEB-DLRip.avi
Формат : AVI
Формат/Информация : Audio Video Interleave
Размер файла : 703 Мбайт
Продолжительность : 1 ч. 23 м.
Общий поток : 1 174 Кбит/сек
Программа кодирования : VirtualDubMod 1.5.10.3 | www.virtualdub-fr.org || (build 2550/release)
Библиотека кодирования : VirtualDubMod build 2550/release

Видео
Идентификатор : 0
Формат : MPEG-4 Visual
Профиль формата : Advanced Simple@L5
Настройки формата : BVOP2
Параметр BVOP формата : 2
Параметр QPel формата : Нет
Параметр GMC формата : Без точки перехода
Параметр матрицы формата : Default (MPEG)
Идентификатор кодека : DIVX
Идентификатор кодека/Информация : Project Mayo
Идентификатор кодека/Подсказка : DivX 4
Продолжительность : 1 ч. 23 м.
Битрейт : 1 036 Кбит/сек
Ширина : 640 пикселей
Высота : 272 пикселя
Соотношение сторон : 2,35:1
Частота кадров : 25,000 кадров/сек
Цветовое пространство : YUV
Субдискретизация насыщенности : 4:2:0
Битовая глубина : 8 бит
Тип развёртки : Прогрессивная
Метод сжатия : С потерями
Бит/(Пиксели*Кадры) : 0.238
Размер потока : 620 Мбайт (88%)
Библиотека кодирования : XviD 1.2.1 (UTC 2008-12-04)

Аудио
Идентификатор : 1
Формат : MPEG Audio
Версия формата : Version 1
Профиль формата : Layer 3
Настройки формата : Joint stereo / MS Stereo
Идентификатор кодека : 55
Идентификатор кодека/Подсказка : MP3
Продолжительность : 1 ч. 23 м.
Вид битрейта : Постоянный
Битрейт : 128 Кбит/сек
Каналы : 2 канала
Частота : 48,0 КГц
Частота кадров : 41,667 кадра/сек (1152 SPF)
Метод сжатия : С потерями
Размер потока : 76,7 Мбайт (11%)
Выравнивание : Соединение по промежуткам
Продолжительность промежутка : 40 мс. (1,00 видеокадр)
Время предзагрузки промежутка : 504 мс.
Библиотека кодирования : LAME3.99r
Настройки программы : -m j -V 4 -q 2 -lowpass 17 -b 128

Report created by : MediaInfoLib - v21.09
Report created on : UTC 2021-11-12 17:54:28

pb.wtf



Скачать Не время любить через торрент https://i116.fastpic.org/big/2021/1112/c3/0696d3e83bd7462bacca1c2fb5330ec3.jpg Скачать, смотреть онлайн Не время любить бесплантно в хорошем качестве Описание: 42-летний Альдо живет уединенной жизнью в Будапеште. Родители 16-летней Клары погибли в концентрационном лагере, и ее воспитывает ... 10 10 3
Торрент: Зарегистрирован [2021-11-12 18:35] · скачан: 16 раз
Статус: √ проверено
Размер: 703 MB
Как cкачать? Как скачать Не время любить через торрент | UTorrent

28-11-2019 20:33  

Отключить всю рекламу на сайте

    Дорогой пользователь! Огромная просьба, поблагодарите релизера, оцените раздачу и оставьте свои комментарий, если Вы скачали Не время любить через торрент бесплатно!
    Комментировать посты могут только пользователи прошедшие не сложную регистрацию
    Показать сообщения:    

    Не время любить через торрент
    Скачать бесплатно Не время любить
    Не время любить скачать торрент
    Не время любить смотреть онлайн
    Cкачать фильм Не время любить бесплатно
    Не время любить скачать торрент в хорошем качестве
    Не время любить смотреть онлайн бесплатно в хорошем качестве


    Вы не можете начинать темы
    Вы не можете отвечать на сообщения
    Вы не можете редактировать свои сообщения
    Вы не можете удалять свои сообщения
    Вы не можете голосовать в опросах
    Вы не можете прикреплять файлы к сообщениям
    Вы можете скачивать файлы