Присоединяйтесь к нам в Telegram!, здесь всегда актуальный адрес сайта, оперативная поддержка и многое другое!!

>

5.9

iTunes

7.4

iTunes

9.4

1 сезон

1

7.4

2 сезон

7.2

iTunes

7.3

1 сезон

13

6.1

iTunes

8.3

GOG

30

ULTIMATE

pack

9.9

Лицензия

ВАЖНО

ИГРА 18+

pack

7.3

RePack

MK11

7.7

RePack

jed

7.8

RePack

fifa19

8.5

RePack

RDR2

RePack

NEED FOR SPEED™ PAYBACK

5 сезон

9 сезон

Бесстыжие 9 сезон

Все сериалы

все сериалы на PB.wtf

RePack

FAR CRY 5

Anonymous, добрый вечер, мы катастрофически не успеваем собрать деньги на оплату серверов, помогите нам пожалуйста 5,10,15р., для нас важна любая помощь . В качестве благодарности мы отключим Вам всю рекламу на сайте (укажите свой ник в строку Ваше имя)!

×
  
Magnet ссылка

Шан-Чи и легенда десяти колец / Shang-Chi and the Legend of the Ten Rings (Дестин Дэниел Креттон) [2021, Фантастика, фэнтези, боевик, приключения, BDRip-AVC] DUB [Невафильм] от ExKinoRay pb.wtf

Шан-Чи и легенда десяти колец через торрент pb.wtf

Раздают: 9 [ 41 KB/s ]
Размер: 3.24 GB | Добавлен: 18 д. назад | Торрент скачан:135 раз
Смотреть онлайн Шан-Чи и легенда десяти колец | Скачать    Ребята, помогите собрать деньги на оплату серверов!!!

12-11-2021 18:36 Шан-Чи и легенда десяти колец Скачать торрент  


Шан-Чи и легенда десяти колец / Shang-Chi and the Legend of the Ten Rings
Информация о фильме:
Название: Шан-Чи и легенда десяти колец
Оригинальное название: Shang-Chi and the Legend of the Ten Rings
Год выхода: 2021
Жанр: Фантастика, фэнтези, боевик, приключения
Режиссер: Дестин Дэниел Креттон

В ролях: Симу Лю, Тони Люн Чу Вай, Аквафина, Мишель Йео, Флориан Мунтяну, Ронни Чиэн, Чэнь Фала, Даллас Джеймс Лью, Чжан Мэнъэр, Тим Рот, Бенедикт Вонг, Бен Кингсли

Описание: Благодаря изнуряющим тренировкам и жесткому воспитанию отца Шан-Чи достиг небывалых высот в боевых искусствах, но выбрал не ту жизнь, которую уготовил для него родитель. Работая простым парковщиком в Сан-Франциско, Шан-Чи сталкивается с призраками прошлого и вместе с подругой Кэти оказывается втянут в водоворот фантастических событий, связанных с таинственной организацией «Десять колец».



Страна: США, Австралия
Студия: Fox Studios Australia, Marvel Studios Inc., Walt Disney Pictures
Продолжительность: 02:12:20
Перевод: Дублированный - Невафильм



Информация о файле:
Кодек: AVC
Формат: MKV
Качество: BDRip-AVC | Shang-Chi.and.the.Legend.of.the.Ten.Rings.2021.BDREMUX.1080p.seleZen
Видео: MPEG-4 AVC, 1024x428, 23.976 fps, 2600 kbps
Аудио RU: AC3, 6 ch, 48 kHz, 448 kbps
Аудио EN: AC3, 6 ch, 48 kHz, 448 kbps
Субтитры: Русские (Forced, full), английские

x264 info: frame I:1641 Avg QP:13.23 size: 88574
x264 info: frame P:50121 Avg QP:16.87 size: 26190
x264 info: frame B:138623 Avg QP:18.47 size: 8100
x264 info: consecutive B-frames: 4.6% 7.6% 11.6% 25.5% 17.0% 21.8% 5.6% 2.6% 1.5% 0.9% 1.2%
General
Unique ID : 10898607629838619710733318016815268731 (0x832FED7B03902B36EC2BE3235E3037B)
Complete name : D:uTorrentРипы wolf1245Shang-Chi.and.the.Legend.of.the.Ten.Rings.2021.DUB.NEVAFILM.BDRip-AVC.[wolf1245.ExKinoRay].mkv
Format : Matroska
Format version : Version 4
File size : 3.24 GiB
Duration : 2 h 12 min
Overall bit rate : 3 494 kb/s
Movie name : Shang-Chi.and.the.Legend.of.the.Ten.Rings.2021.DUB.NEVAFILM.BDRip-AVC.[wolf1245.ExKinoRay]
Encoded date : UTC 2021-11-12 18:18:31
Writing application : mkvmerge v62.0.0 ('Apollo') 64-bit
Writing library : libebml v1.4.2 + libmatroska v1.6.4
Video
ID : 1
Format : AVC
Format/Info : Advanced Video Codec
Format profile : High@L4.1
Format settings : CABAC / 12 Ref Frames
Format settings, CABAC : Yes
Format settings, Reference frames : 12 frames
Codec ID : V_MPEG4/ISO/AVC
Duration : 2 h 12 min
Bit rate : 2 600 kb/s
Width : 1 024 pixels
Height : 428 pixels
Display aspect ratio : 2.40:1
Frame rate mode : Constant
Frame rate : 23.976 (24000/1001) FPS
Color space : YUV
Chroma subsampling : 4:2:0
Bit depth : 8 bits
Scan type : Progressive
Bits/(Pixel*Frame) : 0.247
Stream size : 2.40 GiB (74%)
Title : -=[wolf1245.ExKinoRay]=-
Writing library : x264 core 161 r3020 d198931
Encoding settings : cabac=1 / ref=12 / deblock=1:-3:-3 / analyse=0x3:0x133 / me=umh / subme=11 / psy=1 / psy_rd=1.02:0.05 / mixed_ref=1 / me_range=48 / chroma_me=1 / trellis=2 / 8x8dct=1 / cqm=0 / deadzone=21,11 / fast_pskip=1 / chroma_qp_offset=-3 / threads=10 / lookahead_threads=2 / sliced_threads=0 / nr=0 / decimate=0 / interlaced=0 / bluray_compat=0 / constrained_intra=0 / bframes=10 / b_pyramid=2 / b_adapt=2 / b_bias=0 / direct=3 / weightb=1 / open_gop=0 / weightp=2 / keyint=240 / keyint_min=24 / scenecut=40 / intra_refresh=0 / rc_lookahead=60 / rc=2pass / mbtree=0 / bitrate=2600 / ratetol=1.0 / qcomp=0.60 / qpmin=0 / qpmax=69 / qpstep=4 / cplxblur=20.0 / qblur=0.5 / vbv_maxrate=50000 / vbv_bufsize=62500 / nal_hrd=none / filler=0 / ip_ratio=1.40 / pb_ratio=1.30 / aq=1:0.80
Language : English
Default : Yes
Forced : No
Audio #1
ID : 2
Format : AC-3
Format/Info : Audio Coding 3
Commercial name : Dolby Digital
Codec ID : A_AC3
Duration : 2 h 12 min
Bit rate mode : Constant
Bit rate : 448 kb/s
Channel(s) : 6 channels
Channel layout : L R C LFE Ls Rs
Sampling rate : 48.0 kHz
Frame rate : 31.250 FPS (1536 SPF)
Compression mode : Lossy
Stream size : 425 MiB (13%)
Title : Dub [Nevafilm]
Language : Russian
Service kind : Complete Main
Default : No
Forced : No
Audio #2
ID : 3
Format : AC-3
Format/Info : Audio Coding 3
Commercial name : Dolby Digital
Codec ID : A_AC3
Duration : 2 h 12 min
Bit rate mode : Constant
Bit rate : 448 kb/s
Channel(s) : 6 channels
Channel layout : L R C LFE Ls Rs
Sampling rate : 48.0 kHz
Frame rate : 31.250 FPS (1536 SPF)
Compression mode : Lossy
Stream size : 424 MiB (13%)
Title : Original
Language : English
Service kind : Complete Main
Default : Yes
Forced : No
Text #1
ID : 4
Format : UTF-8
Codec ID : S_TEXT/UTF8
Codec ID/Info : UTF-8 Plain Text
Duration : 2 h 8 min
Bit rate : 7 b/s
Count of elements : 168
Stream size : 6.98 KiB (0%)
Title : Forced
Language : Russian
Default : Yes
Forced : Yes
Text #2
ID : 5
Format : UTF-8
Codec ID : S_TEXT/UTF8
Codec ID/Info : UTF-8 Plain Text
Duration : 2 h 11 min
Bit rate : 59 b/s
Count of elements : 1121
Stream size : 56.9 KiB (0%)
Title : Full
Language : Russian
Default : No
Forced : No
Text #3
ID : 6
Format : UTF-8
Codec ID : S_TEXT/UTF8
Codec ID/Info : UTF-8 Plain Text
Duration : 1 h 55 min
Bit rate : 5 b/s
Count of elements : 188
Stream size : 4.97 KiB (0%)
Title : Forced
Language : English
Default : No
Forced : No
Text #4
ID : 7
Format : UTF-8
Codec ID : S_TEXT/UTF8
Codec ID/Info : UTF-8 Plain Text
Duration : 2 h 10 min
Bit rate : 38 b/s
Count of elements : 1302
Stream size : 36.9 KiB (0%)
Title : Full
Language : English
Default : No
Forced : No
Text #5
ID : 8
Format : UTF-8
Codec ID : S_TEXT/UTF8
Codec ID/Info : UTF-8 Plain Text
Duration : 2 h 11 min
Bit rate : 51 b/s
Count of elements : 1850
Stream size : 49.2 KiB (0%)
Title : SDH
Language : English
Default : No
Forced : No
Text #6
ID : 9
Format : UTF-8
Codec ID : S_TEXT/UTF8
Codec ID/Info : UTF-8 Plain Text
Duration : 2 h 12 min
Bit rate : 76 b/s
Count of elements : 1897
Stream size : 74.1 KiB (0%)
Title : Commentary
Language : English
Default : No
Forced : No
Text #7
ID : 10
Format : UTF-8
Codec ID : S_TEXT/UTF8
Codec ID/Info : UTF-8 Plain Text
Duration : 2 h 12 min
Bit rate : 82 b/s
Count of elements : 2017
Stream size : 80.1 KiB (0%)
Title : Commentary-SDH
Language : English
Default : No
Forced : No
Menu
00:00:00.000 : :Chapter 01
00:03:52.858 : :Chapter 02
00:09:28.985 : :Chapter 03
00:16:17.185 : :Chapter 04
00:22:47.491 : :Chapter 05
00:31:59.668 : :Chapter 06
00:42:49.484 : :Chapter 07
00:52:21.055 : :Chapter 08
00:56:51.325 : :Chapter 09
01:00:35.006 : :Chapter 10
01:08:46.122 : :Chapter 11
01:15:55.050 : :Chapter 12
01:19:51.286 : :Chapter 13
01:29:49.676 : :Chapter 14
01:36:45.800 : :Chapter 15
01:47:00.623 : :Chapter 16
01:55:25.293 : :Chapter 17
02:00:07.242 : :Chapter 18
02:01:46.132 : :Chapter 19
02:04:08.858 : :Chapter 20
02:10:39.248 : :Chapter 21
Релиз от:
Автор релиза:
pb.wtf



Скачать Шан-Чи и легенда десяти колец через торрент https://i116.fastpic.org/big/2021/1112/aa/0d459ae15914205af97fefafcc62a5aa.jpg Скачать, смотреть онлайн Шан-Чи и легенда десяти колец бесплантно в хорошем качестве Описание: Благодаря изнуряющим тренировкам и жесткому воспитанию отца Шан-Чи достиг небывалых высот в боевых искусствах, но выбрал не ту ... 10 10 5
Торрент: Зарегистрирован [2021-11-12 18:36] · скачан: 135 раз
Статус: √ проверено
Размер: 3.24 GB
Как cкачать? Как скачать Шан-Чи и легенда десяти колец через торрент | UTorrent

28-11-2019 20:33  

Отключить всю рекламу на сайте

    Дорогой пользователь! Огромная просьба, поблагодарите релизера, оцените раздачу и оставьте свои комментарий, если Вы скачали Шан-Чи и легенда десяти колец через торрент бесплатно!
    Комментировать посты могут только пользователи прошедшие не сложную регистрацию
    Показать сообщения:    

    Шан-Чи и легенда десяти колец через торрент
    Скачать бесплатно Шан-Чи и легенда десяти колец
    Шан-Чи и легенда десяти колец скачать торрент
    Шан-Чи и легенда десяти колец смотреть онлайн
    Cкачать фильм Шан-Чи и легенда десяти колец бесплатно
    Шан-Чи и легенда десяти колец скачать торрент в хорошем качестве
    Шан-Чи и легенда десяти колец смотреть онлайн бесплатно в хорошем качестве


    Вы не можете начинать темы
    Вы не можете отвечать на сообщения
    Вы не можете редактировать свои сообщения
    Вы не можете удалять свои сообщения
    Вы не можете голосовать в опросах
    Вы не можете прикреплять файлы к сообщениям
    Вы можете скачивать файлы