Присоединяйтесь к нам в Telegram!, здесь всегда актуальный адрес сайта, оперативная поддержка и многое другое!!

>

5.9

iTunes

7.4

iTunes

9.4

1 сезон

1

7.4

2 сезон

7.2

iTunes

7.3

1 сезон

13

6.1

iTunes

8.3

GOG

30

ULTIMATE

pack

9.9

Лицензия

ВАЖНО

ИГРА 18+

pack

7.3

RePack

MK11

7.7

RePack

jed

7.8

RePack

fifa19

8.5

RePack

RDR2

RePack

NEED FOR SPEED™ PAYBACK

5 сезон

9 сезон

Бесстыжие 9 сезон

Все сериалы

все сериалы на PB.wtf

RePack

FAR CRY 5

Anonymous, доброй ночи, мы катастрофически не успеваем собрать деньги на оплату серверов, помогите нам пожалуйста 5,10,15р., для нас важна любая помощь . В качестве благодарности мы отключим Вам всю рекламу на сайте (укажите свой ник в строку Ваше имя)!

×
  
Magnet ссылка

Дом на другой стороне / The Night House (Дэвид Брукнер) [2020, Ужасы, детектив, BDRip-AVC] DUB [Невафильм] от ExKinoRay pb.wtf

Дом на другой стороне через торрент pb.wtf

Раздают: 5 [ 0.4 KB/s ]
Размер: 2.65 GB | Добавлен: 19 д. назад | Торрент скачан:103 раза
Смотреть онлайн Дом на другой стороне | Скачать    Ребята, помогите собрать деньги на оплату серверов!!!

12-11-2021 22:25 Дом на другой стороне Скачать торрент  


Дом на другой стороне / The Night House
Информация о фильме:
Название: Дом на другой стороне
Оригинальное название: The Night House
Год выхода: 2020
Жанр: Ужасы, детектив
Режиссер: Дэвид Брукнер

В ролях: Ребекка Холл, Сара Голдберг, Стэйси Мартин, Вонди Куртис-Холл, Эван Йоникит, Элли Маккаллок, Саманта Бак, Энди Рич, Патрик Клейн

Описание: После внезапной смерти мужа Бет осталась одна в доме на берегу озера, который он построил для нее. По ночам Бет отчетливо чувствует в доме присутствие мужа, видит тени и следы его присутствия, которые исчезают с утренним светом. Пытаясь понять происходящее, Бет начинает изучать вещи, оставшиеся после смерти любимого человека, и находит ужасную тайну, которую он скрывал от нее. «Дом на другой стороне» — психологический фильм ужасов о призраках с Ребеккой Холл в главной роли.



Страна: Великобритания, США
Студия: Anton, Phantom Four Films
Продолжительность: 01:47:01
Перевод: Дублированный - Невафильм



Информация о файле:
Кодек: AVC
Формат: MKV
Качество: BDRip-AVC | The.Night.House.2020.BDREMUX.1080p.seleZen
Видео: MPEG-4 AVC, 1024x426, 23.976 fps, 2650 kbps
Аудио RU: AC3, 6 ch, 48 kHz, 448 kbps
Аудио EN: AC3, 6 ch, 48 kHz, 448 kbps
Субтитры: Русские (Forced, full), английские

General
Unique ID : 25643229002541229135836559307791928765 (0x134AB4CD7FEF9E6894CFF0DFCE580DBD)
Complete name : D:uTorrentРипы wolf1245The Night House.2020.DUB.NEVAFILM.BDRip-AVC.[wolf1245.ExKinoRay].mkv
Format : Matroska
Format version : Version 4
File size : 2.65 GiB
Duration : 1 h 47 min
Overall bit rate : 3 538 kb/s
Movie name : The Night House.2020.DUB.NEVAFILM.BDRip-AVC.[wolf1245.ExKinoRay]
Encoded date : UTC 2021-11-12 22:10:29
Writing application : mkvmerge v62.0.0 ('Apollo') 64-bit
Writing library : libebml v1.4.2 + libmatroska v1.6.4
Video
ID : 1
Format : AVC
Format/Info : Advanced Video Codec
Format profile : High@L4.1
Format settings : CABAC / 12 Ref Frames
Format settings, CABAC : Yes
Format settings, Reference frames : 12 frames
Codec ID : V_MPEG4/ISO/AVC
Duration : 1 h 47 min
Bit rate : 2 650 kb/s
Width : 1 024 pixels
Height : 426 pixels
Display aspect ratio : 2.40:1
Frame rate mode : Constant
Frame rate : 23.976 (24000/1001) FPS
Color space : YUV
Chroma subsampling : 4:2:0
Bit depth : 8 bits
Scan type : Progressive
Bits/(Pixel*Frame) : 0.253
Stream size : 1.98 GiB (75%)
Title : -=[wolf1245.ExKinoRay]=-
Writing library : x264 core 161 r3020 d198931
Encoding settings : cabac=1 / ref=12 / deblock=1:-3:-3 / analyse=0x3:0x133 / me=umh / subme=11 / psy=1 / psy_rd=1.02:0.03 / mixed_ref=1 / me_range=48 / chroma_me=1 / trellis=2 / 8x8dct=1 / cqm=0 / deadzone=21,11 / fast_pskip=1 / chroma_qp_offset=-3 / threads=10 / lookahead_threads=2 / sliced_threads=0 / nr=0 / decimate=0 / interlaced=0 / bluray_compat=0 / constrained_intra=0 / bframes=10 / b_pyramid=2 / b_adapt=2 / b_bias=0 / direct=3 / weightb=1 / open_gop=0 / weightp=2 / keyint=240 / keyint_min=24 / scenecut=40 / intra_refresh=0 / rc_lookahead=60 / rc=2pass / mbtree=0 / bitrate=2650 / ratetol=1.0 / qcomp=0.60 / qpmin=0 / qpmax=69 / qpstep=4 / cplxblur=20.0 / qblur=0.5 / vbv_maxrate=50000 / vbv_bufsize=62500 / nal_hrd=none / filler=0 / ip_ratio=1.40 / pb_ratio=1.30 / aq=1:0.80
Language : English
Default : Yes
Forced : No
Audio #1
ID : 2
Format : AC-3
Format/Info : Audio Coding 3
Commercial name : Dolby Digital
Codec ID : A_AC3
Duration : 1 h 47 min
Bit rate mode : Constant
Bit rate : 448 kb/s
Channel(s) : 6 channels
Channel layout : L R C LFE Ls Rs
Sampling rate : 48.0 kHz
Frame rate : 31.250 FPS (1536 SPF)
Compression mode : Lossy
Stream size : 344 MiB (13%)
Title : Dub [Nevafilm]
Language : Russian
Service kind : Complete Main
Default : Yes
Forced : Yes
Audio #2
ID : 3
Format : AC-3
Format/Info : Audio Coding 3
Commercial name : Dolby Digital
Codec ID : A_AC3
Duration : 1 h 47 min
Bit rate mode : Constant
Bit rate : 448 kb/s
Channel(s) : 6 channels
Channel layout : L R C LFE Ls Rs
Sampling rate : 48.0 kHz
Frame rate : 31.250 FPS (1536 SPF)
Compression mode : Lossy
Stream size : 343 MiB (13%)
Title : Original
Language : English
Service kind : Complete Main
Default : Yes
Forced : No
Text #1
ID : 4
Format : UTF-8
Codec ID : S_TEXT/UTF8
Codec ID/Info : UTF-8 Plain Text
Duration : 1 h 26 min
Bit rate : 2 b/s
Count of elements : 38
Stream size : 1.61 KiB (0%)
Title : Forced
Language : Russian
Default : Yes
Forced : Yes
Text #2
ID : 5
Format : UTF-8
Codec ID : S_TEXT/UTF8
Codec ID/Info : UTF-8 Plain Text
Duration : 1 h 39 min
Bit rate : 50 b/s
Count of elements : 815
Stream size : 36.3 KiB (0%)
Title : Full
Language : Russian
Default : No
Forced : No
Text #3
ID : 6
Format : UTF-8
Codec ID : S_TEXT/UTF8
Codec ID/Info : UTF-8 Plain Text
Duration : 1 h 39 min
Bit rate : 29 b/s
Count of elements : 756
Stream size : 21.6 KiB (0%)
Title : Full
Language : English
Default : No
Forced : No
Text #4
ID : 7
Format : UTF-8
Codec ID : S_TEXT/UTF8
Codec ID/Info : UTF-8 Plain Text
Duration : 1 h 40 min
Bit rate : 40 b/s
Count of elements : 1170
Stream size : 30.1 KiB (0%)
Title : SDH
Language : English
Default : No
Forced : No
Menu
00:00:00.000 : :Chapter 01
00:03:41.388 : :Chapter 02
00:08:08.780 : :Chapter 03
00:15:38.271 : :Chapter 04
00:21:15.483 : :Chapter 05
00:24:03.609 : :Chapter 06
00:33:32.636 : :Chapter 07
00:38:48.117 : :Chapter 08
00:42:51.778 : :Chapter 09
00:47:48.699 : :Chapter 10
00:52:50.250 : :Chapter 11
00:56:07.239 : :Chapter 12
01:00:40.804 : :Chapter 13
01:05:21.251 : :Chapter 14
01:09:02.846 : :Chapter 15
01:14:59.453 : :Chapter 16
01:18:13.022 : :Chapter 17
01:23:28.879 : :Chapter 18
01:27:40.297 : :Chapter 19
01:32:13.862 : :Chapter 20
01:33:52.919 : :Chapter 21
01:35:02.363 : :Chapter 22
01:39:19.537 : :Chapter 23
01:41:26.580 : :Chapter 24
Релиз от:
Автор релиза:
pb.wtf



Скачать Дом на другой стороне через торрент https://i116.fastpic.org/big/2021/1113/b0/263cd7e85ec1c66216f8cdd3fe57c1b0.jpg Скачать, смотреть онлайн Дом на другой стороне бесплантно в хорошем качестве Описание: После внезапной смерти мужа Бет осталась одна в доме на берегу озера, который он построил для нее. По ночам Бет отчетливо ... 9.1 10 8
Торрент: Зарегистрирован [2021-11-12 22:25] · скачан: 103 раз
Статус: √ проверено
Размер: 2.65 GB
Как cкачать? Как скачать Дом на другой стороне через торрент | UTorrent

28-11-2019 20:33  

Отключить всю рекламу на сайте

14-11-2021 20:39 Дом на другой стороне Скачать торрент  

дичь полнейшая рейтинг завышен вдвоеpb.wtf



    Дорогой пользователь! Огромная просьба, поблагодарите релизера, оцените раздачу и оставьте свои комментарий, если Вы скачали Дом на другой стороне через торрент бесплатно!
    Комментировать посты могут только пользователи прошедшие не сложную регистрацию
    Показать сообщения:    

    Дом на другой стороне через торрент
    Скачать бесплатно Дом на другой стороне
    Дом на другой стороне скачать торрент
    Дом на другой стороне смотреть онлайн
    Cкачать фильм Дом на другой стороне бесплатно
    Дом на другой стороне скачать торрент в хорошем качестве
    Дом на другой стороне смотреть онлайн бесплатно в хорошем качестве


    Вы не можете начинать темы
    Вы не можете отвечать на сообщения
    Вы не можете редактировать свои сообщения
    Вы не можете удалять свои сообщения
    Вы не можете голосовать в опросах
    Вы не можете прикреплять файлы к сообщениям
    Вы можете скачивать файлы