Присоединяйтесь к нам в Telegram!, здесь всегда актуальный адрес сайта, оперативная поддержка и многое другое!!

>

5.9

iTunes

7.4

iTunes

9.4

1 сезон

1

7.4

2 сезон

7.2

iTunes

7.3

1 сезон

13

6.1

iTunes

8.3

GOG

30

ULTIMATE

pack

9.9

Лицензия

ВАЖНО

ИГРА 18+

pack

7.3

RePack

MK11

7.7

RePack

jed

7.8

RePack

fifa19

8.5

RePack

RDR2

RePack

NEED FOR SPEED™ PAYBACK

5 сезон

9 сезон

Бесстыжие 9 сезон

Все сериалы

все сериалы на PB.wtf

RePack

FAR CRY 5

Anonymous, доброе утро, мы катастрофически не успеваем собрать деньги на оплату серверов, помогите нам пожалуйста 5,10,15р., для нас важна любая помощь . В качестве благодарности мы отключим Вам всю рекламу на сайте (укажите свой ник в строку Ваше имя)!

×
  
Magnet ссылка

Красное уведомление / Red Notice (Роусон Маршалл Тёрбер) [2021, боевик, триллер, комедия, WEB-DLRip-AVC] Dub [Netflix] pb.wtf

Красное уведомление через торрент pb.wtf

Раздают: 197 [ 312 KB/s ] Качают: 4 [ 210 KB/s ]
Размер: 2.22 GB | Добавлен: 16 д. назад | Торрент скачан:315 раз
Смотреть онлайн Красное уведомление | Скачать    Ребята, помогите собрать деньги на оплату серверов!!!

13-11-2021 11:07 Красное уведомление Скачать торрент  

Красное уведомление
Red Notice

«Pro and cons»

Страна: США
Жанр: боевик, триллер, комедия, криминал
Год выпуска: 2021
Продолжительность: 01:57:59

Перевод: Профессиональный (полное дублирование) [Пифагор / Netflix]
Субтитры: русские (форсированные, полные), английские (форсированные, полные, SDH)
Оригинальная аудиодорожка: английский

Режиссер: Роусон Маршалл Тёрбер / Rawson Marshall Thurber

В ролях: Дуэйн Джонсон, Райан Рейнольдс, Галь Гадот, Риту Эрийа, Крис Диамантополос, Иван Мбакоп, Винченцо Амато, Рафаэль Петарди, Сет Майклс, Себастьен Лардж

Описание: Красное уведомление — это международный сигнал тревоги Интерпола, призывающий начать охоту на особо опасных преступников. Агент ФБР преследует самого разыскиваемого в мире вора картин, но становится его невольным соучастником в попытке поймать мошенника, который всегда на шаг впереди.



Релиз:

Автор рипа: stalkerok

Сэмпл

Качество видео: WEB-DLRip-AVC | Исходник: Red.Notice.2021.1080p.NF.WEB-DL.DDP5.1.HEVC-EniaHD
Формат видео: MKV
Видео кодек: AVC
Аудио кодек: AC3
Видео: AVC, 1795 Кбит/сек, 1132x474 (2.40:1), 24 кадр/сек
Аудио №1: AC3, 448 Кбит/сек, 48 КГц, 5.1 - русский
Аудио №2: AC3, 448 Кбит/сек, 48 КГц, 5.1 - английский
---[Information] [13.11.2021 13:54:21] x264 [info]: frame I:1612 Avg QP:15.20 size: 52275
---[Information] [13.11.2021 13:54:21] x264 [info]: frame P:40192 Avg QP:17.62 size: 19627
---[Information] [13.11.2021 13:54:21] x264 [info]: frame B:128091 Avg QP:20.39 size: 5589
---[Information] [13.11.2021 13:54:21] x264 [info]: consecutive B-frames: 3.1% 3.3% 11.4% 25.5% 23.5% 20.7% 4.2% 4.9% 1.3% 0.3% 0.1% 0.1% 0.2% 0.3% 1.0%

General
Unique ID : 7195643485924822448414226721508431014 (0x569D49D57E07F7D430D374158BC14A6)
Complete name : J:\Red.Notice.2021\Red.Notice.2021.NF.WEB-DLRip.x264.Rus.Eng.stalkerok.New-Team.mkv
Format : Matroska
Format version : Version 4
File size : 2.22 GiB
Duration : 1 h 57 min
Overall bit rate : 2 694 kb/s
Movie name : Red Notice (2021) - Rip by stalkerok
Encoded date : UTC 2021-11-13 10:56:49
Writing application : mkvmerge v62.0.0 ('Apollo') 64-bit
Writing library : libebml v1.4.2 + libmatroska v1.6.4

Video
ID : 1
Format : AVC
Format/Info : Advanced Video Codec
Format profile : High@L4.1
Format settings : CABAC / 12 Ref Frames
Format settings, CABAC : Yes
Format settings, Reference frames : 12 frames
Codec ID : V_MPEG4/ISO/AVC
Duration : 1 h 57 min
Bit rate : 1 796 kb/s
Width : 1 132 pixels
Height : 474 pixels
Display aspect ratio : 2.40:1
Frame rate mode : Constant
Frame rate : 24.000 FPS
Color space : YUV
Chroma subsampling : 4:2:0
Bit depth : 8 bits
Scan type : Progressive
Bits/(Pixel*Frame) : 0.139
Stream size : 1.48 GiB (67%)
Writing library : x264 core 164 r3065+55M 280faca t_mod_New [(8 & 10)-bit@all X86_64]
Encoding settings : cabac=1 / ref=12 / deblock=1:-3:-2 / analyse=0x3:0x133 / me=umh / subme=10 / psy=1 / fade_compensate=0.00 / psy_rd=1.00:0.00 / mixed_ref=1 / me_range=32 / chroma_me=1 / trellis=2 / 8x8dct=1 / cqm=0 / deadzone=21,11 / fast_pskip=0 / chroma_qp_offset=-2 / threads=12 / lookahead_threads=3 / sliced_threads=0 / nr=0 / decimate=1 / interlaced=0 / bluray_compat=0 / constrained_intra=0 / fgo=0 / bframes=14 / b_pyramid=2 / b_adapt=2 / b_bias=0 / direct=3 / weightb=1 / open_gop=0 / weightp=2 / keyint=240 / keyint_min=23 / scenecut=40 / intra_refresh=0 / rc_lookahead=60 / rc=crf / mbtree=0 / crf=19.3000 / qcomp=0.65 / qpmin=0:0:0 / qpmax=69:69:69 / qpstep=4 / vbv_maxrate=50000 / vbv_bufsize=62500 / crf_max=0.0 / nal_hrd=none / filler=0 / ip_ratio=1.40 / pb_ratio=1.30 / aq=3:0.90 / aq-sensitivity=10.00 / aq-factor=1.00:1.00:1.00 / aq2=0 / aq3=0
Default : Yes
Forced : No

Audio #1
ID : 2
Format : AC-3
Format/Info : Audio Coding 3
Commercial name : Dolby Digital
Codec ID : A_AC3
Duration : 1 h 57 min
Bit rate mode : Constant
Bit rate : 448 kb/s
Channel(s) : 6 channels
Channel layout : L R C LFE Ls Rs
Sampling rate : 48.0 kHz
Frame rate : 31.250 FPS (1536 SPF)
Compression mode : Lossy
Stream size : 378 MiB (17%)
Language : Russian
Service kind : Complete Main
Default : Yes
Forced : No

Audio #2
ID : 3
Format : AC-3
Format/Info : Audio Coding 3
Commercial name : Dolby Digital
Codec ID : A_AC3
Duration : 1 h 57 min
Bit rate mode : Constant
Bit rate : 448 kb/s
Channel(s) : 6 channels
Channel layout : L R C LFE Ls Rs
Sampling rate : 48.0 kHz
Frame rate : 31.250 FPS (1536 SPF)
Compression mode : Lossy
Stream size : 378 MiB (17%)
Language : English
Service kind : Complete Main
Default : No
Forced : No

Text #1
ID : 4
Format : UTF-8
Codec ID : S_TEXT/UTF8
Codec ID/Info : UTF-8 Plain Text
Duration : 1 h 55 min
Bit rate : 2 b/s
Count of elements : 52
Stream size : 1.77 KiB (0%)
Title : Forced
Language : Russian
Default : Yes
Forced : No

Text #2
ID : 5
Format : UTF-8
Codec ID : S_TEXT/UTF8
Codec ID/Info : UTF-8 Plain Text
Duration : 1 h 55 min
Bit rate : 81 b/s
Count of elements : 1385
Stream size : 68.6 KiB (0%)
Language : Russian
Default : No
Forced : No

Text #3
ID : 6
Format : UTF-8
Codec ID : S_TEXT/UTF8
Codec ID/Info : UTF-8 Plain Text
Duration : 1 h 38 min
Bit rate : 1 b/s
Count of elements : 33
Stream size : 816 Bytes (0%)
Title : Forced
Language : English
Default : No
Forced : No

Text #4
ID : 7
Format : UTF-8
Codec ID : S_TEXT/UTF8
Codec ID/Info : UTF-8 Plain Text
Duration : 1 h 54 min
Bit rate : 60 b/s
Count of elements : 1420
Stream size : 51.2 KiB (0%)
Language : English
Default : No
Forced : No

Text #5
ID : 8
Format : UTF-8
Codec ID : S_TEXT/UTF8
Codec ID/Info : UTF-8 Plain Text
Duration : 1 h 54 min
Bit rate : 70 b/s
Count of elements : 1718
Stream size : 59.2 KiB (0%)
Title : SDH
Language : English
Default : No
Forced : No
pb.wtf



Скачать Красное уведомление через торрент http://i6.imageban.ru/out/2017/09/18/2ff75c0c358795c5946784cc1680714d.png Скачать, смотреть онлайн Красное уведомление бесплантно в хорошем качестве Описание: Красное уведомление — это международный сигнал тревоги Интерпола, призывающий начать охоту на особо опасных преступников. Агент ... 10 10 11
Info! Золотая раздача, скачанное не засчитывается.
Торрент: Зарегистрирован [2021-11-13 11:07] · скачан: 315 раз
Статус: √ проверено
Размер: 2.22 GB
Как cкачать? Как скачать Красное уведомление через торрент | UTorrent

% Раздел Тема Автор DL S | L
Фильмы 2021 [DVDrip, WEB-DLRip, HDrip] (DUB, MVO) [ 1.46 GB ] Красное уведомление / Red Notice [2021 WEB-DLRip] - [ / Netflix] Twi7ter Скачать
400 | 16
Фильмы 2021 [DVDrip, WEB-DLRip, HDrip] (DUB, MVO) [ 2.18 GB ] Красное уведомление / Red Notice [2021 WEB-DLRip] - [ / Netflix] Twi7ter Скачать
171 | 7
Фильмы (WEB-DL 720p, 1080p) [ 4.52 GB ] Красное уведомление / Red Notice [2021 WEB-DL 1080p] DUB [Пифагор / Netflix] bober100 Скачать
1860 | 76
Фильмы (WEB-DL 720p, 1080p) [ 6.4 GB ] Красное уведомление / Red Notice [2021 WEB-DL-HEVC 1080p ] DUB [Пифагор / Netflix] bober100 Скачать
40 | 0
Фильмы 2021 [DVDrip, WEB-DLRip, HDrip] (DUB, MVO) [ 748 MB ] Красное уведомление / Red Notice [2021 WEB-DLRip] DUB [Пифагор / Netflix] bober100 Скачать
3 | 3
Фильмы 2021 [DVDrip, WEB-DLRip, HDrip] (DUB, MVO) [ 1.51 GB ] Красное уведомление / Red Notice [2021 WEB-DLRip-AVC] Dub [Netflix] sokol_ok Скачать
215 | 1
Фильмы 2021 [DVDrip, WEB-DLRip, HDrip] (DUB, MVO) [ 1.45 GB ] Красное уведомление / Red Notice [2021 WEB-DLRip-AVC] DUB [Пифагор / Netflix] bober100 Скачать
12 | 0

28-11-2019 20:33  

Отключить всю рекламу на сайте

13-11-2021 11:59 Красное уведомление Скачать торрент  

Заценим! О, лёгкое, доброе в стиле... почему-то вспомнился Индиана Джонс! pb.wtf



    Дорогой пользователь! Огромная просьба, поблагодарите релизера, оцените раздачу и оставьте свои комментарий, если Вы скачали Красное уведомление через торрент бесплатно!
    Комментировать посты могут только пользователи прошедшие не сложную регистрацию
    Показать сообщения:    

    Красное уведомление через торрент
    Скачать бесплатно Красное уведомление
    Красное уведомление скачать торрент
    Красное уведомление смотреть онлайн
    Cкачать фильм Красное уведомление бесплатно
    Красное уведомление скачать торрент в хорошем качестве
    Красное уведомление смотреть онлайн бесплатно в хорошем качестве


    Вы не можете начинать темы
    Вы не можете отвечать на сообщения
    Вы не можете редактировать свои сообщения
    Вы не можете удалять свои сообщения
    Вы не можете голосовать в опросах
    Вы не можете прикреплять файлы к сообщениям
    Вы можете скачивать файлы