Присоединяйтесь к нам в Telegram!, здесь всегда актуальный адрес сайта, оперативная поддержка и многое другое!!

>

5.9

iTunes

7.4

iTunes

9.4

1 сезон

1

7.4

2 сезон

7.2

iTunes

7.3

1 сезон

13

6.1

iTunes

8.3

GOG

30

ULTIMATE

pack

9.9

Лицензия

ВАЖНО

ИГРА 18+

pack

7.3

RePack

MK11

7.7

RePack

jed

7.8

RePack

fifa19

8.5

RePack

RDR2

RePack

NEED FOR SPEED™ PAYBACK

5 сезон

9 сезон

Бесстыжие 9 сезон

Все сериалы

все сериалы на PB.wtf

RePack

FAR CRY 5

Anonymous, добрый вечер, мы катастрофически не успеваем собрать деньги на оплату серверов, помогите нам пожалуйста 5,10,15р., для нас важна любая помощь . В качестве благодарности мы отключим Вам всю рекламу на сайте (укажите свой ник в строку Ваше имя)!

×
  
Magnet ссылка

Шан-Чи и легенда десяти колец / Shang-Chi and the Legend of the Ten Rings (Дестин Дэниел Креттон) [2021, фантастика, фэнтези, боевик, WEB-DLRip-AVC] [IMAX Edition] Dub [КиноПоиск HD] pb.wtf

Шан-Чи и легенда десяти колец через торрент pb.wtf

Раздают: 341 [ 4 MB/s ] Качают: 2 [ 379 KB/s ]
Размер: 2.87 GB | Добавлен: 18 д. назад | Торрент скачан:568 раз
Смотреть онлайн Шан-Чи и легенда десяти колец | Скачать    Ребята, помогите собрать деньги на оплату серверов!!!

13-11-2021 15:12 Шан-Чи и легенда десяти колец Скачать торрент  

Шан-Чи и легенда десяти колец
Shang-Chi and the Legend of the Ten Rings

«A Marvel legend will rise»

Страна: США, Австралия
Жанр: фантастика, фэнтези, боевик, приключения
Год выпуска: 2021
Продолжительность: 02:12:20

Перевод: Профессиональный (полное дублирование) [Невафильм / КиноПоиск HD]
Субтитры: русские (форсированные, полные), английские (форсированные, полные, SDH)
Оригинальная аудиодорожка: английский

Режиссер: Дестин Дэниел Креттон / Destin Daniel Cretton

В ролях: Симу Лю, Тони Люн Чу Вай, Аквафина, Мишель Йео, Чжан Мэнъэр, Чэнь Фала, Ронни Чиэн, Флориан Мунтяну, Бен Кингсли, Юэнь Ва

Описание: Мастеру боевых искусств Шан-Чи предстоит противостоять призракам из собственного прошлого, по мере того как его втягивают в паутину интриг таинственной организации «Десять колец».



Релиз:

Автор рипа: stalkerok

Сэмпл

Качество видео: WEB-DLRip-AVC | IMAX Edition | Исходник: Shang.Chi.and.the.Legend.of.the.Ten.Rings.2021.IMAX.1080p.DSNP.WEB-DL.DDP5.1.Atmos.H.264-MZABI
Формат видео: MKV
Видео кодек: AVC
Аудио кодек: AC3
Видео: AVC, 2206 Кбит/сек, 1070x564 (1.897), 23,976 кадр/сек
Аудио №1: AC3, 448 Кбит/сек, 48 КГц, 5.1 - русский
Аудио №2: AC3, 448 Кбит/сек, 48 КГц, 5.1 - английский
Навигация по главам: есть
---[Information] [13.11.2021 17:56:24] x264 [info]: frame I:1577 Avg QP:16.19 size: 70956
---[Information] [13.11.2021 17:56:24] x264 [info]: frame P:52141 Avg QP:18.34 size: 21717
---[Information] [13.11.2021 17:56:24] x264 [info]: frame B:136668 Avg QP:21.21 size: 6923
---[Information] [13.11.2021 17:56:24] x264 [info]: consecutive B-frames: 3.6% 4.4% 13.3% 56.2% 9.9% 9.3% 1.6% 1.1% 0.1% 0.1% 0.1% 0.1% 0.1% 0.1%

General
Unique ID : 13138202345523489263578399044046262673 (0x9E253631FCFBEAB82EEE1FC01299191)
Complete name : J:\Shang-Chi.and.the.Legend.of.the.Ten.Rings.2021\Shang-Chi.and.the.Legend.of.the.Ten.Rings.2021.IMAX.DSNP.WEB-DLRip.x264.Rus.Eng.stalkerok.New-Team.mkv
Format : Matroska
Format version : Version 4
File size : 2.87 GiB
Duration : 2 h 12 min
Overall bit rate : 3 105 kb/s
Movie name : Shang-Chi and the Legend of the Ten Rings (2021) - Rip by stalkerok
Encoded date : UTC 2021-11-13 14:57:27
Writing application : mkvmerge v62.0.0 ('Apollo') 64-bit
Writing library : libebml v1.4.2 + libmatroska v1.6.4

Video
ID : 1
Format : AVC
Format/Info : Advanced Video Codec
Format profile : High@L4.1
Format settings : CABAC / 12 Ref Frames
Format settings, CABAC : Yes
Format settings, Reference frames : 12 frames
Codec ID : V_MPEG4/ISO/AVC
Duration : 2 h 12 min
Bit rate : 2 207 kb/s
Width : 1 070 pixels
Height : 564 pixels
Display aspect ratio : 1.897
Frame rate mode : Constant
Frame rate : 23.976 (24000/1001) FPS
Color space : YUV
Chroma subsampling : 4:2:0
Bit depth : 8 bits
Scan type : Progressive
Bits/(Pixel*Frame) : 0.153
Stream size : 2.04 GiB (71%)
Writing library : x264 core 164 r3065+55M 280faca t_mod_New [(8 & 10)-bit@all X86_64]
Encoding settings : cabac=1 / ref=12 / deblock=1:-3:-2 / analyse=0x3:0x133 / me=umh / subme=10 / psy=1 / fade_compensate=0.00 / psy_rd=1.00:0.00 / mixed_ref=1 / me_range=32 / chroma_me=1 / trellis=2 / 8x8dct=1 / cqm=0 / deadzone=21,11 / fast_pskip=0 / chroma_qp_offset=-2 / threads=12 / lookahead_threads=3 / sliced_threads=0 / nr=0 / decimate=1 / interlaced=0 / bluray_compat=0 / constrained_intra=0 / fgo=0 / bframes=13 / b_pyramid=2 / b_adapt=2 / b_bias=0 / direct=3 / weightb=1 / open_gop=0 / weightp=2 / keyint=240 / keyint_min=23 / scenecut=40 / intra_refresh=0 / rc_lookahead=60 / rc=crf / mbtree=0 / crf=19.3000 / qcomp=0.65 / qpmin=0:0:0 / qpmax=69:69:69 / qpstep=4 / vbv_maxrate=50000 / vbv_bufsize=62500 / crf_max=0.0 / nal_hrd=none / filler=0 / ip_ratio=1.40 / pb_ratio=1.30 / aq=3:0.90 / aq-sensitivity=10.00 / aq-factor=1.00:1.00:1.00 / aq2=0 / aq3=0
Default : Yes
Forced : No

Audio #1
ID : 2
Format : AC-3
Format/Info : Audio Coding 3
Commercial name : Dolby Digital
Codec ID : A_AC3
Duration : 2 h 12 min
Bit rate mode : Constant
Bit rate : 448 kb/s
Channel(s) : 6 channels
Channel layout : L R C LFE Ls Rs
Sampling rate : 48.0 kHz
Frame rate : 31.250 FPS (1536 SPF)
Compression mode : Lossy
Stream size : 424 MiB (14%)
Language : Russian
Service kind : Complete Main
Default : Yes
Forced : No

Audio #2
ID : 3
Format : AC-3
Format/Info : Audio Coding 3
Commercial name : Dolby Digital
Codec ID : A_AC3
Duration : 2 h 12 min
Bit rate mode : Constant
Bit rate : 448 kb/s
Channel(s) : 6 channels
Channel layout : L R C LFE Ls Rs
Sampling rate : 48.0 kHz
Frame rate : 31.250 FPS (1536 SPF)
Compression mode : Lossy
Stream size : 424 MiB (14%)
Language : English
Service kind : Complete Main
Default : No
Forced : No

Text #1
ID : 4
Format : UTF-8
Codec ID : S_TEXT/UTF8
Codec ID/Info : UTF-8 Plain Text
Duration : 2 h 8 min
Bit rate : 7 b/s
Count of elements : 168
Stream size : 6.98 KiB (0%)
Title : Forced
Language : Russian
Default : Yes
Forced : No

Text #2
ID : 5
Format : UTF-8
Codec ID : S_TEXT/UTF8
Codec ID/Info : UTF-8 Plain Text
Duration : 2 h 10 min
Bit rate : 52 b/s
Count of elements : 950
Stream size : 50.0 KiB (0%)
Title : Full | KP
Language : Russian
Default : No
Forced : No

Text #3
ID : 6
Format : UTF-8
Codec ID : S_TEXT/UTF8
Codec ID/Info : UTF-8 Plain Text
Duration : 1 h 55 min
Bit rate : 5 b/s
Count of elements : 188
Stream size : 4.98 KiB (0%)
Title : Forced
Language : English
Default : No
Forced : No

Text #4
ID : 7
Format : UTF-8
Codec ID : S_TEXT/UTF8
Codec ID/Info : UTF-8 Plain Text
Duration : 2 h 10 min
Bit rate : 39 b/s
Count of elements : 1303
Stream size : 37.6 KiB (0%)
Language : English
Default : No
Forced : No

Text #5
ID : 8
Format : UTF-8
Codec ID : S_TEXT/UTF8
Codec ID/Info : UTF-8 Plain Text
Duration : 2 h 11 min
Bit rate : 52 b/s
Count of elements : 1853
Stream size : 50.0 KiB (0%)
Title : SDH
Language : English
Default : No
Forced : No

Menu
00:00:00.000 : en:Chapter 01
00:03:52.858 : en:Chapter 02
00:09:28.985 : en:Chapter 03
00:16:17.185 : en:Chapter 04
00:22:47.491 : en:Chapter 05
00:31:59.668 : en:Chapter 06
00:42:49.484 : en:Chapter 07
00:52:21.055 : en:Chapter 08
00:56:51.325 : en:Chapter 09
01:00:35.006 : en:Chapter 10
01:08:46.122 : en:Chapter 11
01:15:55.050 : en:Chapter 12
01:19:51.286 : en:Chapter 13
01:29:49.676 : en:Chapter 14
01:36:45.800 : en:Chapter 15
01:47:00.623 : en:Chapter 16
01:55:25.293 : en:Chapter 17
02:00:07.242 : en:Chapter 18
02:01:46.132 : en:Chapter 19
02:04:08.858 : en:Chapter 20
02:10:39.248 : en:Chapter 21
pb.wtf



Скачать Шан-Чи и легенда десяти колец через торрент http://i6.imageban.ru/out/2017/09/18/2ff75c0c358795c5946784cc1680714d.png Скачать, смотреть онлайн Шан-Чи и легенда десяти колец бесплантно в хорошем качестве Описание: Мастеру боевых искусств Шан-Чи предстоит противостоять призракам из собственного прошлого, по мере того как его втягивают в ... 10 10 24
Info! Золотая раздача, скачанное не засчитывается.
Торрент: Зарегистрирован [2021-11-13 15:12] · скачан: 568 раз
Статус: √ проверено
Размер: 2.87 GB
Как cкачать? Как скачать Шан-Чи и легенда десяти колец через торрент | UTorrent

% Раздел Тема Автор DL S | L
Фильмы 2021 [DVDrip, WEB-DLRip, HDrip] (DUB, MVO) [ 1.46 GB ] Шан-Чи и легенда десяти колец / Shang-Chi and the Legend of the Ten Rings [2021 BDRip] - [ / Невафильм] Twi7ter Скачать
1469 | 82
Ultra HD (UHD: 2K, 4K, 8K) — видео сверхвысокой чёткости [ 16.86 GB ] Шан-Чи и легенда десяти колец / Shang-Chi and the Legend of the Ten Rings [2021 UHD WEB-DL-HEVC 2160p ] DUB [Невафильм] bober100 Скачать
40 | 0
Фильмы [HD 720p, 1080p] (Хороший звук DUB, MVO) [ 12.51 GB ] Шан-Чи и легенда десяти колец / Shang-Chi and the Legend of the Ten Rings [2021 BDRip 1080p] DUB [Невафильм] bober100 Скачать
35 | 0
Фильмы (WEB-DL 720p, 1080p) [ 8.04 GB ] Шан-Чи и легенда десяти колец / Shang-Chi and the Legend of the Ten Rings [2021 WEB-DL 1080p ] DUB [Невафильм] bober100 Скачать
56 | 1
Фильмы 2021 [DVDrip, WEB-DLRip, HDrip] (DUB, MVO) [ 1.42 GB ] Шан-Чи и легенда десяти колец / Shang-Chi and the Legend of the Ten Rings [2021 WEB-DLRip-AVC] [Локализованный видеоряд] Dub [КиноПоиск HD] sokol_ok Скачать
341 | 12
Фильмы [HD 720p, 1080p] (Хороший звук DUB, MVO) [ 4.48 GB ] Шан-Чи и легенда десяти колец / Shang-Chi and the Legend of the Ten Rings [2021 BDRip 1080p] + [Ukr DUB] killermax2013 Скачать
67 | 3
Фильмы 2021 [DVDrip, WEB-DLRip, HDrip] (DUB, MVO) [ 1.43 GB ] Шан-Чи и легенда десяти колец / Shang-Chi and the Legend of the Ten Rings [2021 BDRip-AVC] Dub [КиноПоиск HD] sokol_ok Скачать
369 | 44

28-11-2019 20:33  

Отключить всю рекламу на сайте

    Дорогой пользователь! Огромная просьба, поблагодарите релизера, оцените раздачу и оставьте свои комментарий, если Вы скачали Шан-Чи и легенда десяти колец через торрент бесплатно!
    Комментировать посты могут только пользователи прошедшие не сложную регистрацию
    Показать сообщения:    

    Шан-Чи и легенда десяти колец через торрент
    Скачать бесплатно Шан-Чи и легенда десяти колец
    Шан-Чи и легенда десяти колец скачать торрент
    Шан-Чи и легенда десяти колец смотреть онлайн
    Cкачать фильм Шан-Чи и легенда десяти колец бесплатно
    Шан-Чи и легенда десяти колец скачать торрент в хорошем качестве
    Шан-Чи и легенда десяти колец смотреть онлайн бесплатно в хорошем качестве


    Вы не можете начинать темы
    Вы не можете отвечать на сообщения
    Вы не можете редактировать свои сообщения
    Вы не можете удалять свои сообщения
    Вы не можете голосовать в опросах
    Вы не можете прикреплять файлы к сообщениям
    Вы можете скачивать файлы