Присоединяйтесь к нам в Telegram!, здесь всегда актуальный адрес сайта, оперативная поддержка и многое другое!!

>

5.9

iTunes

7.4

iTunes

9.4

1 сезон

1

7.4

2 сезон

7.2

iTunes

7.3

1 сезон

13

6.1

iTunes

8.3

GOG

30

ULTIMATE

pack

9.9

Лицензия

ВАЖНО

ИГРА 18+

pack

7.3

RePack

MK11

7.7

RePack

jed

7.8

RePack

fifa19

8.5

RePack

RDR2

RePack

NEED FOR SPEED™ PAYBACK

5 сезон

9 сезон

Бесстыжие 9 сезон

Все сериалы

все сериалы на PB.wtf

RePack

FAR CRY 5

Anonymous, доброй ночи, мы катастрофически не успеваем собрать деньги на оплату серверов, помогите нам пожалуйста 5,10,15р., для нас важна любая помощь . В качестве благодарности мы отключим Вам всю рекламу на сайте (укажите свой ник в строку Ваше имя)!

×
  
Magnet ссылка

Боевой робот номер 4 / Монстры, созданные человеком / Monsters of Man (Марк Тойя) [2020, Фантастика, боевик, НDRip-AVC] DUB [КиноПоиск HD] от ExKinoRay pb.wtf

Боевой робот номер 4 через торрент pb.wtf

Раздают: 4 [ 675 KB/s ]
Размер: 3.4 GB | Добавлен: 18 д. назад | Торрент скачан:229 раз
Смотреть онлайн Боевой робот номер 4 | Скачать    Ребята, помогите собрать деньги на оплату серверов!!!

13-11-2021 21:46 Боевой робот номер 4 Скачать торрент  


Боевой робот номер 4 / Монстры, созданные человеком / Monsters of Man
Информация о фильме:
Название: Боевой робот номер 4 / Монстры, созданные человеком
Оригинальное название: Monsters of Man
Год выхода: 2020
Жанр: фантастика, боевик
Режиссер: Марк Тойя

В ролях: Нил МакДонаф, Brett Tutor, Хосе Росете, Дэвид Хэверти, Paul Haapaniemi, Райан Хью, Ly Ty, Ma Rynet, Kayli Tran, Джессика Блэкмор

Описание: Крупная корпорация, занимающаяся производством робототехники, заручившись поддержкой продажного агента ЦРУ, решает провести незаконную несанкционированную военную операцию, чтобы продемонстрировать их отличные боевые качества, для получения крупных контрактов. В качестве полигона для испытаний они выбирают скрытый лагерь наркоторговцев. Но хорошо продуманный план дает сбой...



Страна: Австралия
Студия: MRT Films Pty Ltd, Hanuman Films, 11:11 Entertainment
Продолжительность: 02:11:52
Перевод: Дублированный - КиноПоиск HD



Информация о файле:
Кодек: AVC
Формат: MKV
Качество: HDRip-AVC
Видео: MPEG-4 AVC, 1024x428, 24.000 fps, 2350 kbps
Аудио RU: AC3, 6 ch, 48 kHz, 448 kbps
Аудио EN: AC3, 6 ch, 48 kHz, 448 kbps
Аудио UKR: AC3, 6 ch, 48 kHz, 448 kbps
Субтитры: Russian (Forced, Full), Ukrainian (Forced), English

x264 info: frame I:2000 Avg QP:13.61 size: 70618
x264 info: frame P:50229 Avg QP:17.31 size: 23035
x264 info: frame B:137659 Avg QP:19.01 size: 7448
x264 info: consecutive B-frames: 5.8% 4.9% 13.7% 21.8% 17.2% 28.3% 4.5% 1.5% 1.1% 0.7% 0.5%
General
Unique ID : 285385068063812740272843978849428415227 (0xD6B32A3211F01E417ABD9AEEE2DFA2FB)
Complete name : D:uTorrentРипы wolf1245Monsters of Man.2020.DUB.KHD.НDRip-AVC.[wolf1245.ExKinoRay].mkv
Format : Matroska
Format version : Version 4
File size : 3.40 GiB
Duration : 2 h 11 min
Overall bit rate : 3 696 kb/s
Movie name : Monsters of Man.2020.DUB.KHD.НDRip-AVC.[wolf1245.ExKinoRay]
Encoded date : UTC 2021-11-13 21:29:58
Writing application : mkvmerge v62.0.0 ('Apollo') 64-bit
Writing library : libebml v1.4.2 + libmatroska v1.6.4
Cover : Yes
Attachments : cover.jpg
Video
ID : 1
Format : AVC
Format/Info : Advanced Video Codec
Format profile : High@L4.1
Format settings : CABAC / 12 Ref Frames
Format settings, CABAC : Yes
Format settings, Reference frames : 12 frames
Codec ID : V_MPEG4/ISO/AVC
Duration : 2 h 11 min
Bit rate : 2 350 kb/s
Width : 1 024 pixels
Height : 428 pixels
Display aspect ratio : 2.40:1
Frame rate mode : Constant
Frame rate : 24.000 FPS
Color space : YUV
Chroma subsampling : 4:2:0
Bit depth : 8 bits
Scan type : Progressive
Bits/(Pixel*Frame) : 0.223
Stream size : 2.16 GiB (64%)
Title : -=[wolf1245.ExKinoRay]=-
Writing library : x264 core 161 r3020 d198931
Encoding settings : cabac=1 / ref=12 / deblock=1:-3:-3 / analyse=0x3:0x133 / me=umh / subme=11 / psy=1 / psy_rd=1.02:0.05 / mixed_ref=1 / me_range=48 / chroma_me=1 / trellis=2 / 8x8dct=1 / cqm=0 / deadzone=21,11 / fast_pskip=1 / chroma_qp_offset=-3 / threads=10 / lookahead_threads=2 / sliced_threads=0 / nr=0 / decimate=0 / interlaced=0 / bluray_compat=0 / constrained_intra=0 / bframes=10 / b_pyramid=2 / b_adapt=2 / b_bias=0 / direct=3 / weightb=1 / open_gop=0 / weightp=2 / keyint=240 / keyint_min=24 / scenecut=40 / intra_refresh=0 / rc_lookahead=60 / rc=2pass / mbtree=0 / bitrate=2350 / ratetol=1.0 / qcomp=0.60 / qpmin=0 / qpmax=69 / qpstep=4 / cplxblur=20.0 / qblur=0.5 / vbv_maxrate=50000 / vbv_bufsize=62500 / nal_hrd=none / filler=0 / ip_ratio=1.40 / pb_ratio=1.30 / aq=1:0.80
Language : English
Default : Yes
Forced : No
Audio #1
ID : 2
Format : AC-3
Format/Info : Audio Coding 3
Commercial name : Dolby Digital
Codec ID : A_AC3
Duration : 2 h 11 min
Bit rate mode : Constant
Bit rate : 448 kb/s
Channel(s) : 6 channels
Channel layout : L R C LFE Ls Rs
Sampling rate : 48.0 kHz
Frame rate : 31.250 FPS (1536 SPF)
Compression mode : Lossy
Stream size : 422 MiB (12%)
Title : DUB (KinoPoiskHD)
Language : Russian
Service kind : Complete Main
Default : Yes
Forced : Yes
Audio #2
ID : 3
Format : AC-3
Format/Info : Audio Coding 3
Commercial name : Dolby Digital
Codec ID : A_AC3
Duration : 2 h 11 min
Bit rate mode : Constant
Bit rate : 448 kb/s
Channel(s) : 6 channels
Channel layout : L R C LFE Ls Rs
Sampling rate : 48.0 kHz
Frame rate : 31.250 FPS (1536 SPF)
Compression mode : Lossy
Stream size : 423 MiB (12%)
Title : Original
Language : English
Service kind : Complete Main
Default : Yes
Forced : No
Audio #3
ID : 4
Format : AC-3
Format/Info : Audio Coding 3
Commercial name : Dolby Digital
Codec ID : A_AC3
Duration : 2 h 11 min
Bit rate mode : Constant
Bit rate : 448 kb/s
Channel(s) : 6 channels
Channel layout : L R C LFE Ls Rs
Sampling rate : 48.0 kHz
Frame rate : 31.250 FPS (1536 SPF)
Compression mode : Lossy
Stream size : 422 MiB (12%)
Title : DUB (Cinemaker)
Language : Ukrainian
Service kind : Complete Main
Default : No
Forced : No
Text #1
ID : 5
Format : UTF-8
Codec ID : S_TEXT/UTF8
Codec ID/Info : UTF-8 Plain Text
Duration : 2 h 11 min
Bit rate : 3 b/s
Count of elements : 107
Stream size : 3.80 KiB (0%)
Title : Forced
Language : Russian
Default : Yes
Forced : Yes
Text #2
ID : 6
Format : UTF-8
Codec ID : S_TEXT/UTF8
Codec ID/Info : UTF-8 Plain Text
Duration : 2 h 11 min
Bit rate : 76 b/s
Count of elements : 1925
Stream size : 73.6 KiB (0%)
Title : Full
Language : Russian
Default : No
Forced : No
Text #3
ID : 7
Format : UTF-8
Codec ID : S_TEXT/UTF8
Codec ID/Info : UTF-8 Plain Text
Duration : 1 h 51 min
Bit rate : 2 b/s
Count of elements : 50
Stream size : 1.91 KiB (0%)
Title : Forced
Language : Ukrainian
Default : No
Forced : No
Text #4
ID : 8
Format : ASS
Codec ID : S_TEXT/ASS
Codec ID/Info : Advanced Sub Station Alpha
Duration : 2 h 10 min
Bit rate : 80 b/s
Count of elements : 1631
Compression mode : Lossless
Stream size : 77.6 KiB (0%)
Language : English
Default : No
Forced : No
Text #5
ID : 9
Format : UTF-8
Codec ID : S_TEXT/UTF8
Codec ID/Info : UTF-8 Plain Text
Duration : 2 h 10 min
Bit rate : 43 b/s
Count of elements : 1631
Stream size : 42.0 KiB (0%)
Language : English
Default : No
Forced : No
Text #6
ID : 10
Format : UTF-8
Codec ID : S_TEXT/UTF8
Codec ID/Info : UTF-8 Plain Text
Duration : 2 h 11 min
Bit rate : 55 b/s
Count of elements : 2131
Stream size : 53.0 KiB (0%)
Title : SDH
Language : English
Default : No
Forced : No
Menu
00:00:00.000 : :Chapter 01
00:12:10.083 : :Chapter 02
00:21:34.375 : :Chapter 03
00:32:43.292 : :Chapter 04
00:54:11.042 : :Chapter 05
01:07:39.625 : :Chapter 06
01:18:08.125 : :Chapter 07
01:30:46.792 : :Chapter 08
01:39:52.208 : :Chapter 09
01:51:40.000 : :Chapter 10
02:03:41.458 : :Chapter 11
Релиз от:
Автор релиза:
pb.wtf



Скачать Боевой робот номер 4 через торрент https://i116.fastpic.org/big/2021/1114/7f/7e2391d0940fa4762c65fd259d50257f.jpg Скачать, смотреть онлайн Боевой робот номер 4 бесплантно в хорошем качестве Описание: Крупная корпорация, занимающаяся м робототехники, заручившись поддержкой продажного агента ЦРУ, решает провести ... 8.7 10 15
Торрент: Зарегистрирован [2021-11-13 21:46] · скачан: 229 раз
Статус: √ проверено
Размер: 3.4 GB
Как cкачать? Как скачать Боевой робот номер 4 через торрент | UTorrent

28-11-2019 20:33  

Отключить всю рекламу на сайте

13-11-2021 23:55 Боевой робот номер 4 Скачать торрент  

редкая шляпаpb.wtf



15-11-2021 16:25 Боевой робот номер 4 Скачать торрент  

:)pb.wtf



16-11-2021 02:35 Боевой робот номер 4 Скачать торрент  

Почему редкая ? сейчас такое чуть ли не каждый день выходит ))pb.wtf



    Дорогой пользователь! Огромная просьба, поблагодарите релизера, оцените раздачу и оставьте свои комментарий, если Вы скачали Боевой робот номер 4 через торрент бесплатно!
    Комментировать посты могут только пользователи прошедшие не сложную регистрацию
    Показать сообщения:    

    Боевой робот номер 4 через торрент
    Скачать бесплатно Боевой робот номер 4
    Боевой робот номер 4 скачать торрент
    Боевой робот номер 4 смотреть онлайн
    Cкачать фильм Боевой робот номер 4 бесплатно
    Боевой робот номер 4 скачать торрент в хорошем качестве
    Боевой робот номер 4 смотреть онлайн бесплатно в хорошем качестве


    Вы не можете начинать темы
    Вы не можете отвечать на сообщения
    Вы не можете редактировать свои сообщения
    Вы не можете удалять свои сообщения
    Вы не можете голосовать в опросах
    Вы не можете прикреплять файлы к сообщениям
    Вы можете скачивать файлы