Достать ножи: Стеклянная луковица

MVO

Добыча

Дубляж

Уэнсдэй

1 сезон

Тор

Дубляж

13 клиническая

1 сезон

Жестокая ночь

MVO

Одни из нас

1 сезон

Deluxe

pack

Рекомендуем

30

Пиратка

ВАЖНО

ВАЖНО

Ghostwire

Пиратка

jed

RePack

nioh2

RePack

RDR2

RePack

NEED FOR SPEED™ PAYBACK

RePack

скачать торрент

Кинопоиск HD

Острые козырьки 6 сезон

6 сезон

FAR CRY 6

RePack

скачать торрент

Лицензия

скачать торрент

MVO

1

1 сезон

скачать торрент

1 сезон

скачать торрент

Лицензия

  

Шан-Чи и легенда десяти колец / Shang-Chi and the Legend of the Ten Rings (Дестин Дэниел Креттон) [2021, фантастика, фэнтези, боевик, WEB-DLRip-AVC] [Локализованный видеоряд] Дубляж [КиноПоиск HD]

Шан-Чи и легенда десяти колец через торрент pb.wtf

Раздают: 3 [ 0 KB/s ]
Размер: 1.42 GB | Добавлен: 1 год 2 мес. назад | Торрент скачан:1407 раз
Смотреть онлайн | Скачать | Поддержите нас   

14-11-2021 10:05 Шан-Чи и легенда десяти колец Скачать торрент  

Шан-Чи и легенда десяти колец
Shang-Chi and the Legend of the Ten Rings

«A Marvel legend will rise»

Страна: США, Австралия
Жанр: фантастика, фэнтези, боевик, приключения
Год выпуска: 2021
Продолжительность: 02:12:20

Перевод: Профессиональный (полное дублирование) [Невафильм / КиноПоиск HD]
Субтитры: русские (форсированные - хардсаб, полные)
Оригинальная аудиодорожка: нет

Режиссер: Дестин Дэниел Креттон / Destin Daniel Cretton

В ролях: Симу Лю, Тони Люн Чу Вай, Аквафина, Мишель Йео, Чжан Мэнъэр, Чэнь Фала, Ронни Чиэн, Флориан Мунтяну, Бен Кингсли, Юэнь Ва

Описание: Мастеру боевых искусств Шан-Чи предстоит противостоять призракам из собственного прошлого, по мере того как его втягивают в паутину интриг таинственной организации «Десять колец».



Релиз:

Автор рипа: stalkerok

Сэмпл

Качество видео: WEB-DLRip-AVC | Локализованный видеоряд | Исходник: Shang-Chi.and.the.Legend.of.the.Ten.Rings.2021.WEB-DL.KP.1080p-SOFCJ
Формат видео: MKV
Видео кодек: AVC
Аудио кодек: AAC
Видео: AVC, 1276 Кбит/сек, 874x366 (2.40:1), 23,976 кадр/сек
Аудио: AAC, 256 Кбит/сек, 48 КГц, 5.1 - русский
Навигация по главам: есть
---[Information] [13.11.2021 20:46:53] x264 [info]: frame I:1585 Avg QP:16.27 size: 41145
---[Information] [13.11.2021 20:46:53] x264 [info]: frame P:51015 Avg QP:18.35 size: 12651
---[Information] [13.11.2021 20:46:53] x264 [info]: frame B:138079 Avg QP:21.18 size: 4041
---[Information] [13.11.2021 20:46:53] x264 [info]: consecutive B-frames: 3.1% 4.2% 9.1% 63.8% 7.2% 9.3% 1.1% 1.6% 0.1% 0.1% 0.1% 0.1% 0.0% 0.0% 0.2%

General
Unique ID : 183545906942613501007060802186567974836 (0x8A15A7E4CE480D00A59A2F4B33CF7FB4)
Complete name : J:\Shang-Chi.and.the.Legend.of.the.Ten.Rings.2021\Shang-Chi.and.the.Legend.of.the.Ten.Rings.2021.KP.WEB-DLRip.x264.Rus.stalkerok.New-Team.mkv
Format : Matroska
Format version : Version 4
File size : 1.42 GiB
Duration : 2 h 12 min
Overall bit rate : 1 534 kb/s
Movie name : Shang-Chi and the Legend of the Ten Rings (2021) - Rip by stalkerok
Encoded date : UTC 2021-11-14 09:50:13
Writing application : mkvmerge v62.0.0 ('Apollo') 64-bit
Writing library : libebml v1.4.2 + libmatroska v1.6.4

Video
ID : 1
Format : AVC
Format/Info : Advanced Video Codec
Format profile : [email protected]
Format settings : CABAC / 12 Ref Frames
Format settings, CABAC : Yes
Format settings, Reference frames : 12 frames
Codec ID : V_MPEG4/ISO/AVC
Duration : 2 h 12 min
Bit rate : 1 276 kb/s
Width : 874 pixels
Height : 366 pixels
Display aspect ratio : 2.40:1
Frame rate mode : Constant
Frame rate : 23.976 (24000/1001) FPS
Color space : YUV
Chroma subsampling : 4:2:0
Bit depth : 8 bits
Scan type : Progressive
Bits/(Pixel*Frame) : 0.166
Stream size : 1.18 GiB (83%)
Writing library : x264 core 164 r3065+55M 280faca t_mod_New [(8 & 10)[email protected] X86_64]
Encoding settings : cabac=1 / ref=12 / deblock=1:-3:-2 / analyse=0x3:0x133 / me=umh / subme=10 / psy=1 / fade_compensate=0.00 / psy_rd=1.00:0.00 / mixed_ref=1 / me_range=32 / chroma_me=1 / trellis=2 / 8x8dct=1 / cqm=0 / deadzone=21,11 / fast_pskip=0 / chroma_qp_offset=-2 / threads=11 / lookahead_threads=2 / sliced_threads=0 / nr=0 / decimate=1 / interlaced=0 / bluray_compat=0 / constrained_intra=0 / fgo=0 / bframes=14 / b_pyramid=2 / b_adapt=2 / b_bias=0 / direct=3 / weightb=1 / open_gop=0 / weightp=2 / keyint=240 / keyint_min=23 / scenecut=40 / intra_refresh=0 / rc_lookahead=60 / rc=crf / mbtree=0 / crf=19.0000 / qcomp=0.65 / qpmin=0:0:0 / qpmax=69:69:69 / qpstep=4 / vbv_maxrate=50000 / vbv_bufsize=62500 / crf_max=0.0 / nal_hrd=none / filler=0 / ip_ratio=1.40 / pb_ratio=1.30 / aq=3:0.90 / aq-sensitivity=10.00 / aq-factor=1.00:1.00:1.00 / aq2=0 / aq3=0
Default : Yes
Forced : No

Audio
ID : 2
Format : AAC LC
Format/Info : Advanced Audio Codec Low Complexity
Codec ID : A_AAC-2
Duration : 2 h 12 min
Bit rate : 256 kb/s
Channel(s) : 6 channels
Channel layout : C L R Ls Rs LFE
Sampling rate : 48.0 kHz
Frame rate : 46.875 FPS (1024 SPF)
Compression mode : Lossy
Delay relative to video : 9 ms
Stream size : 242 MiB (17%)
Language : Russian
Default : Yes
Forced : No

Text
ID : 3
Format : UTF-8
Codec ID : S_TEXT/UTF8
Codec ID/Info : UTF-8 Plain Text
Duration : 2 h 10 min
Bit rate : 52 b/s
Count of elements : 950
Stream size : 50.0 KiB (0%)
Language : Russian
Default : No
Forced : No

Menu
00:00:00.000 : en:Chapter 01
00:03:52.858 : en:Chapter 02
00:09:28.985 : en:Chapter 03
00:16:17.185 : en:Chapter 04
00:22:47.491 : en:Chapter 05
00:31:59.668 : en:Chapter 06
00:42:49.484 : en:Chapter 07
00:52:21.055 : en:Chapter 08
00:56:51.325 : en:Chapter 09
01:00:35.006 : en:Chapter 10
01:08:46.122 : en:Chapter 11
01:15:55.050 : en:Chapter 12
01:19:51.286 : en:Chapter 13
01:29:49.676 : en:Chapter 14
01:36:45.800 : en:Chapter 15
01:47:00.623 : en:Chapter 16
01:55:25.293 : en:Chapter 17
02:00:07.242 : en:Chapter 18
02:01:46.132 : en:Chapter 19
02:04:08.858 : en:Chapter 20
02:10:39.248 : en:Chapter 21



Скачать Шан-Чи и легенда десяти колец через торрент http://i6-imageban-ru.translate.goog/out/2017/09/18/2ff75c0c358795c5946784cc1680714d.png Скачать, смотреть онлайн Шан-Чи и легенда десяти колец бесплантно в хорошем качестве Описание: Мастеру боевых искусств Шан-Чи предстоит противостоять призракам из собственного прошлого, по мере того как его втягивают в ... 10 10 27
Info! Золотая раздача, скачанное не засчитывается.
Торрент: Зарегистрирован [2021-11-14 10:05] · скачан: 1 407 раз
Статус: √ проверено
Размер: 1.42 GB
Как cкачать? Как скачать Шан-Чи и легенда десяти колец через торрент | UTorrent

% Раздел Тема Автор DL S | L
3D Фильмы [ 7.32 GB ] Шан-Чи и легенда десяти колец в 3D / Shang-Chi and the Legend of the Ten Rings in 3D | Дубляж | 1080p, Дубляж slaventi-69 Скачать
1 | 0
3D Фильмы [ 11.71 GB ] Шан-Чи и легенда десяти колец в 3Д / Shang-Chi and the Legend of the Ten Rings 3D | DUB | 1080p, (Half OverUnder bober100 Скачать
4 | 0
Фильмы (HD 720p, 1080p) (48-60 fps) [ 5.68 GB ] Шан-Чи и легенда десяти колец / Shang-Chi and the Legend of the Ten Rings | Дубляж | DLRip 720p / 60 FPS slaventi-69 Скачать
2 | 0
3D Фильмы [ 18.78 GB ] Шан-Чи и легенда десяти колец в 3Д / Shang-Chi and the Legend of the Ten Rings 3D | er / Вертикальная стереопара | 1080p serega768 Скачать
1 | 0
Фильмы 2021 [DVDrip, WEB-DLRip, HDrip] (DUB, MVO) [ 1.46 GB ] Шан-Чи и легенда десяти колец / Shang-Chi and the Legend of the Ten Rings | Лицензия | BDRip Twi7ter Скачать
160 | 1
Ultra HD (UHD: 2K, 4K, 8K) [ 16.86 GB ] Шан-Чи и легенда десяти колец / Shang-Chi and the Legend of the Ten Rings | DUB | 2160p, (IMAX Edition bober100 Скачать
3 | 0
Фильмы [HD 720p, 1080p] (Хороший звук DUB, MVO) [ 12.51 GB ] Шан-Чи и легенда десяти колец / Shang-Chi and the Legend of the Ten Rings | DUB | 1080p bober100 Скачать
2 | 0

28-11-2019 20:33  


Отключить вcю реклaмy на сайте, в т.ч. и в плеере онлайн просмотра!

    Дорогой пользователь! Огромная просьба, поблагодарите релизера, оцените раздачу и оставьте свои комментарий, если Вы скачали Шан-Чи и легенда десяти колец через торрент бесплатно!!
    Комментировать посты могут только пользователи прошедшие не сложную регистрацию
    Показать сообщения:    


    Шан-Чи и легенда десяти колец через торрент
    Скачать бесплатно Шан-Чи и легенда десяти колец
    Шан-Чи и легенда десяти колец скачать торрент
    Шан-Чи и легенда десяти колец смотреть онлайн
    Cкачать фильм Шан-Чи и легенда десяти колец бесплатно
    Шан-Чи и легенда десяти колец скачать торрент в хорошем качестве
    Шан-Чи и легенда десяти колец смотреть онлайн бесплатно в хорошем качестве
    Вы не можете начинать темы
    Вы не можете отвечать на сообщения
    Вы не можете редактировать свои сообщения
    Вы не можете удалять свои сообщения
    Вы не можете голосовать в опросах
    Вы не можете прикреплять файлы к сообщениям
    Вы можете скачивать файлы
    Шан-Чи и легенда десяти колец / Shang-Chi and the Legend of the Ten Rings [2021, фантастика, фэнтези, боевик, WEB-DLRip-AVC] [Локализованный видеоряд] Дубляж [КиноПоиск HD] смотреть онлайн, скачать торрент picoco.icu