Достать ножи: Стеклянная луковица

MVO

Добыча

Дубляж

Уэнсдэй

1 сезон

Тор

Дубляж

13 клиническая

1 сезон

Жестокая ночь

MVO

Одни из нас

1 сезон

Deluxe

pack

Рекомендуем

30

Пиратка

ВАЖНО

ВАЖНО

Ghostwire

Пиратка

jed

RePack

nioh2

RePack

RDR2

RePack

NEED FOR SPEED™ PAYBACK

RePack

скачать торрент

Кинопоиск HD

Острые козырьки 6 сезон

6 сезон

FAR CRY 6

RePack

скачать торрент

Лицензия

скачать торрент

MVO

1

1 сезон

скачать торрент

1 сезон

скачать торрент

Лицензия

  

Проклятие Кинтанара / La casa del caracol / The House of Snails (Макарена Асторга) [2021, Ужасы, триллер, WEB-DLRip-AVC] MVO [КиноПоиск HD]

Проклятие Кинтанара через торрент pb.wtf

Раздают: 1 [ 0 KB/s ]
Размер: 1.66 GB | Добавлен: 1 год 2 мес. назад | Торрент скачан:35 раз
Смотреть онлайн | Скачать | Поддержите нас   

15-11-2021 14:26 Проклятие Кинтанара Скачать торрент  

Проклятие Кинтанара
La casa del caracol | The House of Snails

Год выпуска: 2021
Страна: Испания, Перу
Студия: Basque Films, Bowfinger International Pictures, Canal Sur Televisión
Жанр: Ужасы, триллер
Продолжительность: 01:43:27
Перевод: Профессиональный (многоголосый) | КиноПоиск HD
Субтитры: отсутствуют

Режиссер: Макарена Асторга

rating

В ролях: Хавьер Рей, Пас Вега, Луна Фульхенсио, Норма Мартинес, Карлос Алькантара, Хесус Карроса, Ава Салазар, Висенте Вергара, Педро Касабланк, Эльвира Мингес

Описание: Антонио Прието решает провести лето в горах в окрестностях Малаги. Там он надеется найти покой и вдохновение для создания нового романа. Необычное поведение новых знакомых пробуждает желание написать о них. Он начинает интересоваться жизнью общины и достаточно быстро понимает, что местные жители скрывают от него многочисленные тайны. Антонио с ужасом осознает, что реальность гораздо страшнее и невероятнее самых смелых фантазий.

Качество: WEB-DLRip-AVC
Формат: MKV

Видео: 1024x428 at 24.000 fps, [email protected], ~1850 kbps
Аудио: 48 kHz, AC3 Dolby Digital, 3/2 (L, C, R, l, r) + LFE ch, ~448 Kbps
скриншот  скриншот  скриншот  скриншот  скриншот  

x264 [info]: frame I:1169 Avg QP:12.15 size: 68623
x264 [info]: frame P:35279 Avg QP:15.24 size: 20831
x264 [info]: frame B:112523 Avg QP:17.10 size: 5502

General
Unique ID : 48812899979297911031005405074707316521 (0x24B905C76D155165945AF3B94765FF29)
Complete name : I:The.House.of.Snails.2021.WEB-DLRip-AVC.mkv
Format : Matroska
Format version : Version 4
File size : 1.66 GiB
Duration : 1 h 43 min
Overall bit rate : 2 299 kb/s
Encoded date : UTC 2021-11-14 18:30:55
Writing application : mkvmerge v62.0.0 ('Apollo') 64-bit
Writing library : libebml v1.4.2 + libmatroska v1.6.4
Cover : Yes
Attachments : cover.png / cover 2.jpg

Video
ID : 1
Format : AVC
Format/Info : Advanced Video Codec
Format profile : [email protected]
Format settings : CABAC / 10 Ref Frames
Format settings, CABAC : Yes
Format settings, Reference : 10 frames
Codec ID : V_MPEG4/ISO/AVC
Duration : 1 h 43 min
Bit rate : 1 850 kb/s
Width : 1 024 pixels
Height : 428 pixels
Display aspect ratio : 2.40:1
Frame rate mode : Constant
Frame rate : 24.000 FPS
Color space : YUV
Chroma subsampling : 4:2:0
Bit depth : 8 bits
Scan type : Progressive
Bits/(Pixel*Frame) : 0.176
Stream size : 1.34 GiB (80%)
Title : -=DoMiNo=-
Writing library : x264 core 164 r3075+55M 97d28bb t_mod_New [(8 & 10)[email protected] X86_64]
Encoding settings : cabac=1 / ref=10 / deblock=1:-2:-2 / analyse=0x3:0x133 / me=umh / subme=10 / psy=1 / fade_compensate=0.00 / psy_rd=1.05:0.15 / mixed_ref=1 / me_range=32 / chroma_me=1 / trellis=2 / 8x8dct=1 / cqm=0 / deadzone=21,11 / fast_pskip=0 / chroma_qp_offset=-3 / threads=24 / lookahead_threads=3 / sliced_threads=0 / nr=0 / decimate=0 / interlaced=0 / bluray_compat=0 / constrained_intra=0 / fgo=0 / bframes=9 / b_pyramid=2 / b_adapt=2 / b_bias=0 / direct=3 / weightb=1 / open_gop=0 / weightp=2 / keyint=250 / keyint_min=23 / scenecut=40 / intra_refresh=0 / rc_lookahead=60 / rc=2pass / mbtree=0 / bitrate=1850 / ratetol=1.0 / qcomp=0.60 / qpmin=0:0:0 / qpmax=69:69:69 / qpstep=4 / cplxblur=20.0 / qblur=0.5 / vbv_maxrate=50000 / vbv_bufsize=62500 / nal_hrd=none / filler=0 / ip_ratio=1.40 / pb_ratio=1.30 / aq=2:0.90 / aq-sensitivity=10.00 / aq-factor=1.00:1.00:1.00 / aq2=0 / aq3=0
Language : English
Default : Yes
Forced : No

Audio
ID : 2
Format : AC-3
Format/Info : Audio Coding 3
Commercial name : Dolby Digital
Codec ID : A_AC3
Duration : 1 h 43 min
Bit rate mode : Constant
Bit rate : 448 kb/s
Channel(s) : 6 channels
Channel layout : L R C LFE Ls Rs
Sampling rate : 48.0 kHz
Frame rate : 31.250 FPS (1536 SPF)
Compression mode : Lossy
Stream size : 331 MiB (19%)
Title : MVO AC3 (Kinopoisk HD)
Language : Russian
Service kind : Complete Main
Default : Yes
Forced : Yes




Скачать Проклятие Кинтанара через торрент https://i5-imageban-ru.translate.goog/out/2021/11/14/0df9135f5b18d6901674a0491e148bc8.png Скачать, смотреть онлайн Проклятие Кинтанара бесплантно в хорошем качестве Описание: Антонио Прието решает провести лето в горах в окрестностях Малаги. Там он надеется найти покой и вдохновение для создания нового ... 10 10 3
Торрент: Зарегистрирован [2021-11-15 14:26] · скачан: 35 раз
Статус: √ проверено
Размер: 1.66 GB
Как cкачать? Как скачать Проклятие Кинтанара через торрент | UTorrent

% Раздел Тема Автор DL S | L
Фильмы 2021 [DVDrip, WEB-DLRip, HDrip] (DUB, MVO) [ 1.73 GB ] Проклятие Кинтанара / La casa del caracol / The House of Snails | КиноПоиск HD | DLRip-AVC Lithuania Скачать
1 | 0
Фильмы 2021 [DVDrip, WEB-DLRip, HDrip] (DUB, MVO) [ 1.45 GB ] Проклятие Кинтанара / La casa del caracol / The House of Snails | КиноПоиск HD | DLRip bober100 Скачать
1 | 0
Фильмы (WEB-DL 720p, 1080p) [ 4.97 GB ] Проклятие Кинтанара / La casa del caracol / The House of Snails | КиноПоиск HD | 1080p bober100 Скачать
1 | 0

28-11-2019 20:33  


Отключить вcю реклaмy на сайте, в т.ч. и в плеере онлайн просмотра!

    Дорогой пользователь! Огромная просьба, поблагодарите релизера, оцените раздачу и оставьте свои комментарий, если Вы скачали Проклятие Кинтанара через торрент бесплатно!!
    Комментировать посты могут только пользователи прошедшие не сложную регистрацию
    Показать сообщения:    


    Проклятие Кинтанара через торрент
    Скачать бесплатно Проклятие Кинтанара
    Проклятие Кинтанара скачать торрент
    Проклятие Кинтанара смотреть онлайн
    Cкачать фильм Проклятие Кинтанара бесплатно
    Проклятие Кинтанара скачать торрент в хорошем качестве
    Проклятие Кинтанара смотреть онлайн бесплатно в хорошем качестве
    Вы не можете начинать темы
    Вы не можете отвечать на сообщения
    Вы не можете редактировать свои сообщения
    Вы не можете удалять свои сообщения
    Вы не можете голосовать в опросах
    Вы не можете прикреплять файлы к сообщениям
    Вы можете скачивать файлы
    Проклятие Кинтанара / La casa del caracol / The House of Snails [2021, Ужасы, триллер, WEB-DLRip-AVC] MVO [КиноПоиск HD] смотреть онлайн, скачать торрент picoco.icu