Присоединяйтесь к нам в Telegram!, здесь всегда актуальный адрес сайта, оперативная поддержка и многое другое!!

>

5.9

iTunes

7.4

iTunes

9.4

1 сезон

1

7.4

2 сезон

7.2

iTunes

7.3

1 сезон

13

6.1

iTunes

8.3

GOG

30

ULTIMATE

pack

9.9

Лицензия

ВАЖНО

ИГРА 18+

pack

7.3

RePack

MK11

7.7

RePack

jed

7.8

RePack

fifa19

8.5

RePack

RDR2

RePack

NEED FOR SPEED™ PAYBACK

5 сезон

9 сезон

Бесстыжие 9 сезон

Все сериалы

все сериалы на PB.wtf

RePack

FAR CRY 5

Anonymous, добрый вечер, мы катастрофически не успеваем собрать деньги на оплату серверов, помогите нам пожалуйста 5,10,15р., для нас важна любая помощь . В качестве благодарности мы отключим Вам всю рекламу на сайте (укажите свой ник в строку Ваше имя)!

×
  
Magnet ссылка

Перевал Дятлова / Серии: 1-8 из 8 (Валерий Федорович, Евгений Никишов, Павел Костомаров) [2020, Триллер, детектив, история, мистика, BDRip] [GER Transfer / Лицензия Blu-ray GER] pb.wtf

Перевал Дятлова через торрент pb.wtf

Раздают: 1 [ 0 KB/s ]
Размер: 5.58 GB | Добавлен: 17 д. назад | Торрент скачан:19 раз
Смотреть онлайн Перевал Дятлова | Скачать    Ребята, помогите собрать деньги на оплату серверов!!!

15-11-2021 15:09 Перевал Дятлова Скачать торрент  

Перевал Дятлова
Год выпуска: 2020
Страна: Россия
Выпущено: LEGIO FELIX по заказу телеканала ТНТ
Жанр: Триллер, детектив, история, мистика
Продолжительность: ~ 00:55:00
Перевод: Не требуется | Лицензия Blu-ray GER
Субтитры: Русские (форсированные) отдельно, немецкие (форсированные (хардсаб))

Режиссер: Валерий Федорович, Евгений Никишов, Павел Костомаров, Степан Гордеев

rating

В ролях: Пётр Фёдоров (младший), Мария Луговая, Андрей Добровольский (II), Иван Мулин, Александр Метелкин (II), Маша Мацель, Ирина Лукина (II), Максим Емельянов, Егор Бероев, Евгений Антропов, Роман Евдокимов, Юрий Дейнекин, Максим Костромыкин, Алексей Бардуков, Андрей Арзяев, Азамат Нигманов, Алексей Сергеев, Александр Коновалов, Алексей Кирсанов, Павел Ворожцов, Олег Васильков, Ёндон Цог, Тимур Романов, Георгий Бессонов, Елена Маркова (VII), Сергей Шакуров, Кирилл Васильев, Алексей Вертков, Евгений Ткачук, Михаил Орлов (II)

Описание: Зима 1959 года. Уральские горы. Группа из девяти студентов под руководством Игоря Дятлова отправились в поход к заснеженным вершинам. Из этого путешествия живым не вернулся никто. Что произошло с туристами? Погибли под снежной лавиной, были убиты местными жителями или беглыми заключенными? Или же их смерть вызвана встречей со сверхъестественным? Это предстоит выяснить следственной группе под руководством майора Олега Костина. Отправившись на место происшествия, Костин понимает, что в этом деле слишком много деталей, которые не укладываются ни в одну из версий.

Качество: BDRip
Формат: AVI

Видео #01, 03, 05, 07: 720x304 (2.35:1), 25 fps, XviD, 1800 Кbps avg, 0.329 bit/pixel
Видео #02, 08: 704x400 (16:9), 25 fps, XviD, 1800 Кbps avg, 0.256 bit/pixel
Видео #04, 06: 704x528 (4:3), 25 fps, XviD, 1800 Кbps avg, 0.194 bit/pixel
Аудио: AC3, 48 kHz, 2 ch, ~192.00 kbps avg | русский | Blu-ray GER
скриншот  скриншот  скриншот  скриншот  скриншот  

Общее
Полное имя : D:\\Pereval.Dyatlova.2020..BDRip.MegaPeer\Pereval.Dyatlova.2020.EP01.BDRip.MegaPeer.avi
Формат : AVI
Формат/Информация : Audio Video Interleave
Размер файла : 821 Мбайт
Продолжительность : 57 м. 21 с.
Общий поток : 2 002 Кбит/сек
Программа кодирования : VirtualDubModRus 1.5.10.2 (build 2542/release)
Библиотека кодирования : VirtualDubMod build 2542/release

Видео
Идентификатор : 0
Формат : MPEG-4 Visual
Профиль формата : Advanced Simple@L5
Настройки формата : BVOP1 / Custom Matrix
Параметр BVOP формата : 1
Параметр QPel формата : Нет
Параметр GMC формата : Без точки перехода
Параметр матрицы формата : Выборочная
Идентификатор кодека : XVID
Идентификатор кодека/Подсказка : XviD
Продолжительность : 57 м. 21 с.
Битрейт : 1 800 Кбит/сек
Ширина : 720 пикселей
Высота : 304 пикселя
Соотношение сторон : 2,35:1
Частота кадров : 25,000 кадров/сек
Цветовое пространство : YUV
Субдискретизация насыщенности : 4:2:0
Битовая глубина : 8 бит
Тип развёртки : Прогрессивная
Метод сжатия : С потерями
Бит/(Пиксели*Кадры) : 0.329
Размер потока : 739 Мбайт (90%)
Библиотека кодирования : XviD 73

Аудио
Идентификатор : 1
Формат : AC-3
Формат/Информация : Audio Coding 3
Коммерческое название : Dolby Digital
Идентификатор кодека : 2000
Продолжительность : 57 м. 21 с.
Вид битрейта : Постоянный
Битрейт : 192 Кбит/сек
Каналы : 2 канала
Channel layout : L R
Частота : 48,0 КГц
Частота кадров : 31,250 кадров/сек (1536 SPF)
Метод сжатия : С потерями
Размер потока : 78,8 Мбайт (10%)
Выравнивание : Разделение по промежуткам
Продолжительность промежутка : 40 мс. (1,00 видеокадр)
Время предзагрузки промежутка : 500 мс.
Service kind : Complete Main

pb.wtf



Скачать Перевал Дятлова через торрент https://i116.fastpic.org/big/2021/1115/f8/bc23b6cb07403dcfeec1619cadcb66f8.jpg Скачать, смотреть онлайн Перевал Дятлова бесплантно в хорошем качестве Описание: Зима 1959 года. Уральские горы. Группа из девяти студентов под руководством Игоря Дятлова отправились в поход к заснеженным ... 10 10 4
Торрент: Зарегистрирован [2021-11-15 15:09] · скачан: 19 раз
Статус: √ проверено
Размер: 5.58 GB
Как cкачать? Как скачать Перевал Дятлова через торрент | UTorrent

% Раздел Тема Автор DL S | L
TNT serials [ 12.9 GB ] Перевал Дятлова / Сезон: 1 / Серии: 1-8 из 8 [2020 история WEBRip 1080p] killermax2013 Скачать
2 | 1
TNT serials [ 5.72 GB ] Перевал Дятлова / Серии: 1-8 из 8 + Фильм о фильме [2020 история WEBRip] bober100 Скачать
5 | 0
TNT serials [ 9.75 GB ] Перевал Дятлова / Серии: 1-8 из 8 + Фильм о фильме [2020 история WEBRip 720p] bober100 Скачать
8 | 0
TNT serials [ 5.49 GB ] Перевал Дятлова / Серии: 1-8 из 8 + Фильм о фильме [2020 история SATRip] bober100 Скачать
3 | 0
TNT serials [ 22.17 GB ] Перевал Дятлова / Серии: 1-8 из 8 + Фильм о фильме [2020 история HDTV 1080i] bober100 Скачать
3 | 1
TNT serials [ 5.51 GB ] Перевал Дятлова / Серии: 1-8 из 8 + Фильм о фильме [2020 история WEBRip-AVC] bober100 Скачать
3 | 0

28-11-2019 20:33  

Отключить всю рекламу на сайте

    Дорогой пользователь! Огромная просьба, поблагодарите релизера, оцените раздачу и оставьте свои комментарий, если Вы скачали Перевал Дятлова через торрент бесплатно!
    Комментировать посты могут только пользователи прошедшие не сложную регистрацию
    Показать сообщения:    

    Перевал Дятлова через торрент
    Скачать бесплатно Перевал Дятлова
    Перевал Дятлова скачать торрент
    Перевал Дятлова смотреть онлайн
    Cкачать фильм Перевал Дятлова бесплатно
    Перевал Дятлова скачать торрент в хорошем качестве
    Перевал Дятлова смотреть онлайн бесплатно в хорошем качестве


    Вы не можете начинать темы
    Вы не можете отвечать на сообщения
    Вы не можете редактировать свои сообщения
    Вы не можете удалять свои сообщения
    Вы не можете голосовать в опросах
    Вы не можете прикреплять файлы к сообщениям
    Вы можете скачивать файлы