Доктор Стрэндж

Лицензия

Добыча

Дубляж

Дом дракона

1 сезон

Тор

Дубляж

В эфире

Дубляж

Там, где раки поют

MVO

Властелин колец

1 сезон

GLOBAL

pack

Рекомендуем

30

Пиратка

ВАЖНО

ВАЖНО

Ghostwire

Пиратка

jed

RePack

nioh2

RePack

RDR2

RePack

NEED FOR SPEED™ PAYBACK

RePack

скачать торрент

Кинопоиск HD

Острые козырьки 6 сезон

6 сезон

FAR CRY 6

RePack

скачать торрент

Лицензия

скачать торрент

MVO

1

1 сезон

скачать торрент

1 сезон

скачать торрент

Лицензия

  

Никогда не сдавайся: Бунт / Never Back Down: Revolt (Келли Мэдисон) [2021, Боевик, драма, спорт, BD Remux 1080p] MVO [Кинопоиск HD]

Никогда не сдавайся: Бунт через торрент pb.wtf

Размер: 23.54 GB | Добавлен: 1 год назад | Торрент скачан:15 раз
Смотреть онлайн | Скачать   

15-11-2021 18:21 Никогда не сдавайся: Бунт Скачать торрент  

Никогда не сдавайся: Бунт
Never Back Down: Revolt

Год выпуска: 2021
Страна: США
Жанр: Боевик, драма, спорт
Продолжительность: 01:29:27
Перевод: Профессиональный (многоголосый) | Кинопоиск HD
Субтитры: Русские (Forced, full), английские

Режиссер: Келли Мэдисон

rating

В ролях: Джеймс Фолкнер, Майкл Биспинг, Ханна аль Рашид, Ниту Чандра, Томми Бастоу, Камерон Джек, Кристофер Сиуреф, Диана Патрисия Ойос, Оливия Попика, Ли Чарльз

Описание: Анна отправляется в Рим, чтобы защитить честь своего брата — принять участие в боксерском поединке. По прибытии Анна осознает, что оказалась среди многих похищенных девушек, которые вынуждены сражаться на ринге за смертоносный синдикат торговцев людьми. Единственный вариант Анны — сдаться требованиям похитителей или объединиться с другими похищенными бойцами и поднять бунт.

Качество: BD Remux 1080p
Формат: MKV

Видео: MPEG-4 AVC, 1920x1080, 34.6 Mbit/s, 23.976 fps
Аудио #01: 48 kHz, E-AC3, 5.1, 448 Kbps | Профессиональный многоголосый | Кинопоиск HD | RUS |
Аудио #02: 48 kHz, AC3, 5.1, 448 Kbps | Профессиональный многоголосый | Кинопоиск HD | RUS |
Аудио #03: 48 kHz, DTS-HD MA, 5.1, 2209 Kbps | Оригинал | ENG |
скриншот  скриншот  скриншот  скриншот  скриншот  

General
Unique ID : 262364903841392075141901656485068745890 (0xC561A478AE42E67FC4C2638BA0E72CA2)
Complete name : E:VideoNever.Back.Down.Revolt.2021.BDREMUX.1080p.seleZen.mkv
Format : Matroska
Format version : Version 4
File size : 23.5 GiB
Duration : 1 h 29 min
Overall bit rate mode : Variable
Overall bit rate : 37.7 Mb/s
Movie name : Never Back Down Revolt 2021 from seleZen
Encoded date : UTC 2021-11-15 17:55:06
Writing application : mkvmerge v59.0.0 ('Shining Star') 64-bit
Writing library : libebml v1.4.2 + libmatroska v1.6.4

Video
ID : 1
Format : AVC
Format/Info : Advanced Video Codec
Format profile : [email protected]
Format settings : CABAC / 2 Ref Frames
Format settings, CABAC : Yes
Format settings, Reference frames : 2 frames
Codec ID : V_MPEG4/ISO/AVC
Duration : 1 h 29 min
Bit rate mode : Variable
Bit rate : 34.6 Mb/s
Width : 1 920 pixels
Height : 1 080 pixels
Display aspect ratio : 16:9
Frame rate mode : Constant
Frame rate : 23.976 (24000/1001) FPS
Color space : YUV
Chroma subsampling : 4:2:0
Bit depth : 8 bits
Scan type : Progressive
Bits/(Pixel*Frame) : 0.695
Stream size : 21.6 GiB (92%)
Language : English
Default : Yes
Forced : No

Audio #1
ID : 2
Format : E-AC-3
Format/Info : Enhanced AC-3
Commercial name : Dolby Digital Plus
Codec ID : A_EAC3
Duration : 1 h 29 min
Bit rate mode : Constant
Bit rate : 448 kb/s
Channel(s) : 6 channels
Channel layout : L R C LFE Ls Rs
Sampling rate : 48.0 kHz
Frame rate : 31.250 FPS (1536 SPF)
Compression mode : Lossy
Stream size : 287 MiB (1%)
Title : MVO [Kinopoisk HD]
Language : Russian
Service kind : Complete Main
Default : Yes
Forced : Yes

Audio #2
ID : 3
Format : AC-3
Format/Info : Audio Coding 3
Commercial name : Dolby Digital
Codec ID : A_AC3
Duration : 1 h 29 min
Bit rate mode : Constant
Bit rate : 448 kb/s
Channel(s) : 6 channels
Channel layout : L R C LFE Ls Rs
Sampling rate : 48.0 kHz
Frame rate : 31.250 FPS (1536 SPF)
Compression mode : Lossy
Stream size : 287 MiB (1%)
Title : MVO [Kinopoisk HD]
Language : Russian
Service kind : Complete Main
Default : No
Forced : No

Audio #3
ID : 4
Format : DTS XLL
Format/Info : Digital Theater Systems
Commercial name : DTS-HD Master Audio
Codec ID : A_DTS
Duration : 1 h 29 min
Bit rate mode : Variable
Bit rate : 2 209 kb/s
Channel(s) : 6 channels
Channel layout : C L R Ls Rs LFE
Sampling rate : 48.0 kHz
Frame rate : 93.750 FPS (512 SPF)
Bit depth : 16 bits
Compression mode : Lossless
Stream size : 1.38 GiB (6%)
Title : Original
Language : English
Default : No
Forced : No

Text #1
ID : 5
Format : UTF-8
Codec ID : S_TEXT/UTF8
Codec ID/Info : UTF-8 Plain Text
Duration : 58 min 38 s
Bit rate : 0 b/s
Count of elements : 4
Stream size : 167 Bytes (0%)
Title : Forced
Language : Russian
Default : Yes
Forced : Yes

Text #2
ID : 6
Format : UTF-8
Codec ID : S_TEXT/UTF8
Codec ID/Info : UTF-8 Plain Text
Duration : 1 h 28 min
Bit rate : 56 b/s
Count of elements : 758
Stream size : 36.4 KiB (0%)
Title : Full
Language : Russian
Default : No
Forced : No

Text #3
ID : 7
Format : UTF-8
Codec ID : S_TEXT/UTF8
Codec ID/Info : UTF-8 Plain Text
Duration : 43 min 4 s
Bit rate : 0 b/s
Count of elements : 3
Stream size : 69.0 Bytes (0%)
Title : Forced
Language : English
Default : No
Forced : No

Text #4
ID : 8
Format : UTF-8
Codec ID : S_TEXT/UTF8
Codec ID/Info : UTF-8 Plain Text
Duration : 1 h 22 min
Bit rate : 41 b/s
Count of elements : 754
Stream size : 24.8 KiB (0%)
Title : Full
Language : English
Default : No
Forced : No

Text #5
ID : 9
Format : UTF-8
Codec ID : S_TEXT/UTF8
Codec ID/Info : UTF-8 Plain Text
Duration : 1 h 26 min
Bit rate : 49 b/s
Count of elements : 945
Stream size : 31.3 KiB (0%)
Title : SDH
Language : English
Default : No
Forced : No

Menu
00:00:00.000 : Chapter 01
00:04:12.085 : Chapter 02
00:09:39.370 : Chapter 03
00:15:09.700 : Chapter 04
00:19:49.980 : Chapter 05
00:25:51.842 : Chapter 06
00:31:07.449 : Chapter 07
00:36:53.878 : Chapter 08
00:39:53.474 : Chapter 09
00:44:01.389 : Chapter 10
00:47:29.889 : Chapter 11
00:53:15.359 : Chapter 12
00:59:19.431 : Chapter 13
01:02:21.446 : Chapter 14
01:08:12.255 : Chapter 15
01:17:26.892 : Chapter 16




Скачать Никогда не сдавайся: Бунт через торрент https://d.radikal.ru/d05/2111/e4/b242b5a6853d.jpg Скачать, смотреть онлайн Никогда не сдавайся: Бунт бесплантно в хорошем качестве Описание: Анна отправляется в Рим, чтобы защитить честь своего брата — принять участие в боксерском поединке. По прибытии Анна осознает, ... 10 10 2
Торрент: Зарегистрирован [2021-11-15 18:21] · скачан: 15 раз
Статус: √ проверено
Размер: 23.54 GB
Как cкачать? Как скачать Никогда не сдавайся: Бунт через торрент | UTorrent

% Раздел Тема Автор DL S | L
Фильмы 2021 [DVDrip, WEB-DLRip, HDrip] (DUB, MVO) [ 1.46 GB ] Никогда не сдавайся: Бунт / Never Back Down: Revolt | Лицензия | BDRip Twi7ter Скачать
2 | 0
Фильмы 2021 [DVDrip, WEB-DLRip, HDrip] (DUB, MVO) [ 746 MB ] Никогда не сдавайся: Бунт / Never Back Down: Revolt | Лицензия Blu-ray EUR | BDRip bober100 Скачать
1 | 0
Фильмы 2021 [DVDrip, WEB-DLRip, HDrip] (DUB, MVO) [ 2.25 GB ] Никогда не сдавайся: Бунт / Never Back Down: Revolt | КиноПоиск HD | BDRip-AVC Lithuania Скачать
1 | 0
Фильмы 2021 [DVDrip, WEB-DLRip, HDrip] (DUB, MVO) [ 1.45 GB ] Никогда не сдавайся: Бунт / Never Back Down: Revolt | Лицензия Blu-ray EUR | BDRip bober100 Скачать
1 | 0
Фильмы [HD 720p, 1080p] (Хороший звук DUB, MVO) [ 7.91 GB ] Никогда не сдавайся: Бунт / Never Back Down: Revolt | Кинопоиск HD | 1080p bober100 Скачать
1 | 0
Фильмы [HD 720p, 1080p] (Хороший звук DUB, MVO) [ 3.8 GB ] Никогда не сдавайся: Бунт / Never Back Down: Revolt | Кинопоиск HD | 720p bober100 Скачать
1 | 0

28-11-2019 20:33  


Отключить вcю реклaмy на сайте, в т.ч. и в плеере онлайн просмотра!

    Дорогой пользователь! Огромная просьба, поблагодарите релизера, оцените раздачу и оставьте свои комментарий, если Вы скачали Никогда не сдавайся: Бунт через торрент бесплатно!!
    Комментировать посты могут только пользователи прошедшие не сложную регистрацию
    Показать сообщения:    


    Никогда не сдавайся: Бунт через торрент
    Скачать бесплатно Никогда не сдавайся: Бунт
    Никогда не сдавайся: Бунт скачать торрент
    Никогда не сдавайся: Бунт смотреть онлайн
    Cкачать фильм Никогда не сдавайся: Бунт бесплатно
    Никогда не сдавайся: Бунт скачать торрент в хорошем качестве
    Никогда не сдавайся: Бунт смотреть онлайн бесплатно в хорошем качестве
    Вы не можете начинать темы
    Вы не можете отвечать на сообщения
    Вы не можете редактировать свои сообщения
    Вы не можете удалять свои сообщения
    Вы не можете голосовать в опросах
    Вы не можете прикреплять файлы к сообщениям
    Вы можете скачивать файлы
    Никогда не сдавайся: Бунт / Never Back Down: Revolt [2021, Боевик, драма, спорт, BD Remux 1080p] MVO [Кинопоиск HD] смотреть онлайн, скачать торрент picoco.icu