Всегда рабочее зеркало без VPN и Proxy просто перед .vidak.icu напиши любое слово или цифру, Пример http://26k5.vidak.icu

MVO

2 сезон

2 сезон

1

1 сезон

iTunes

2 сезон

13

1 сезон

Распродажа

pack

Рекомендуем

Пиратка

30

ВАЖНО

RePack

MK11

RePack

jed

RePack

fifa19

RePack

RDR2

RePack

NEED FOR SPEED™ PAYBACK

Кинопоиск HD

6 сезон

 Острые козырьки 6 сезон

Все сериалы

все сериалы на PB.wtf

RePack

FAR CRY 5

Anonymous, нам критически не хватает 5601 руб. на оплату серверов и переферии за Апрель, помоги нам пожалуйста, вся надежда только на тебя. В благодарность мы отключим тебе всю рекламу на сайте!

×
  
Magnet ссылка

Жертва / Sacrifice (Энди Колье, Тур Миан) [2020, Ужасы, WEB-DL 1080p] MVO [IVI] pb.wtf

Жертва через торрент pb.wtf

Размер: 3.67 GB | Добавлен: 6 мес. назад | Торрент скачан:50 раз
Смотреть онлайн Жертва | Скачать    Ребята, помогите собрать деньги на оплату серверов!!!

15-11-2021 18:42 Жертва Скачать торрент  

Жертва | Sacrifice
Год выпуска: 2020
Страна: Великобритания
Выпущено: Hydra Films RKM, Loose Canon Films
Жанр: Ужасы
Продолжительность: 01:27:22
Перевод: Профессиональный (многоголосый) | IVI
Субтитры: отсутствуют

Режиссер: Энди Колье, Тур Миан

rating

В ролях: Барбара Крэмптон, Софи Стивенс, Людовик Хьюз, Лукас Лугрэн, Джоанна Адде Даль, Джек Кристиансен, Эрик Лундин, Даг Соерли

Описание: Когда мать Айзека умирает, он вместе с беременной женой Эммой узнаёт о неожиданном наследстве, ожидающем его на отдалённом острове в Норвегии. Приехав туда, пара сталкивается с древним божеством из пучин моря, пробуждённым поклоняющимся ему местным культом.

Качество: WEB-DL 1080p
Формат: MKV

Видео: MPEG-4 AVC, 5120 Kb/s, 1920x800
Аудио#1 Rus: AC3, 384 Kb/s (6 ch)
Аудио#2 Rus: AAC, 512 Kb/s (6 ch)
скриншот  скриншот  скриншот  скриншот  скриншот  

Complete name : Zhertva.2020.WEB-DL.1080p.ELEKTRI4KA.UNIONGANG.mkv
Format : Matroska
Format version : Version 4
File size : 3.67 GiB
Duration : 1 h 27 min
Overall bit rate : 6 014 kb/s
Movie name : Zhertva.2020.WEB-DL.1080p.ELEKTRI4KA.UNIONGANG.
Encoded date : UTC 2021-11-15 18:11:17
Writing application : mkvmerge v8.3.0 ('Over the Horizon') 32bit
Writing library : libebml v1.3.1 + libmatroska v1.4.2

Video
ID : 1
Format : AVC
Format/Info : Advanced Video Codec
Format profile : High@L4
Format settings : CABAC / 4 Ref Frames
Format settings, CABAC : Yes
Format settings, Reference frames : 4 frames
Codec ID : V_MPEG4/ISO/AVC
Duration : 1 h 27 min
Bit rate : 5 120 kb/s
Width : 1 920 pixels
Height : 800 pixels
Display aspect ratio : 2.40:1
Frame rate mode : Constant
Frame rate : 24.000 FPS
Color space : YUV
Chroma subsampling : 4:2:0
Bit depth : 8 bits
Scan type : Progressive
Bits/(Pixel*Frame) : 0.139
Stream size : 3.12 GiB (85%)
Writing library : x264 core 152 r2854 e9a5903
Encoding settings : cabac=1 / ref=3 / deblock=1:0:0 / analyse=0x3:0x113 / me=hex / subme=7 / psy=1 / psy_rd=1.00:0.00 / mixed_ref=1 / me_range=16 / chroma_me=1 / trellis=1 / 8x8dct=1 / cqm=0 / deadzone=21,11 / fast_pskip=1 / chroma_qp_offset=-2 / threads=25 / lookahead_threads=4 / sliced_threads=0 / nr=0 / decimate=1 / interlaced=0 / bluray_compat=0 / constrained_intra=0 / bframes=6 / b_pyramid=2 / b_adapt=1 / b_bias=0 / direct=1 / weightb=1 / open_gop=0 / weightp=2 / keyint=48 / keyint_min=25 / scenecut=0 / intra_refresh=0 / rc_lookahead=40 / rc=2pass / mbtree=1 / bitrate=5120 / ratetol=1.0 / qcomp=0.60 / qpmin=0 / qpmax=69 / qpstep=4 / cplxblur=20.0 / qblur=0.5 / vbv_maxrate=7680 / vbv_bufsize=20480 / nal_hrd=none / filler=0 / ip_ratio=1.40 / aq=1:1.00
Default : Yes
Forced : No

Audio #1
ID : 2
Format : AC-3
Format/Info : Audio Coding 3
Commercial name : Dolby Digital
Codec ID : A_AC3
Duration : 1 h 27 min
Bit rate mode : Constant
Bit rate : 384 kb/s
Channel(s) : 6 channels
Channel layout : L R C LFE Ls Rs
Sampling rate : 48.0 kHz
Frame rate : 31.250 FPS (1536 SPF)
Compression mode : Lossy
Delay relative to video : -43 ms
Stream size : 240 MiB (6%)
Title : MVO AC3 (IVI)
Language : Russian
Service kind : Complete Main
Default : Yes
Forced : Yes

Audio #2
ID : 3
Format : AAC LC
Format/Info : Advanced Audio Codec Low Complexity
Codec ID : A_AAC-2
Duration : 1 h 27 min
Bit rate : 512 kb/s
Channel(s) : 6 channels
Channel layout : C L R Ls Rs LFE
Sampling rate : 48.0 kHz
Frame rate : 46.875 FPS (1024 SPF)
Compression mode : Lossy
Delay relative to video : -43 ms
Stream size : 320 MiB (9%)
Title : MVO AAC (IVI)
Language : Russian
Default : No
Forced : No

pb.wtf



Скачать Жертва через торрент https://i2.imageban.ru/out/2021/11/15/9e5bbc65ca82c7b7b6e6c14fe5f39234.jpg Скачать, смотреть онлайн Жертва бесплантно в хорошем качестве Описание: Когда мать Айзека умирает, он вместе с беременной женой Эммой узнаёт о неожиданном наследстве, ожидающем его на отдалённом ... 8.8 10 5
Торрент: Зарегистрирован [2021-11-15 18:42] · скачан: 50 раз
Статус: √ проверено
Размер: 3.67 GB
Как cкачать? Как скачать Жертва через торрент | UTorrent

% Раздел Тема Автор DL S | L
T Фильмы (мультфильмы) cо спонсором показа (Новинки AVI/MKV) [ 1.37 GB ] Жертва / Sacrifice [2019 WEB-DLRip] MVO ["Синема УС"] bober100 Скачать
1 | 0
T Фильмы (мультфильмы) cо спонсором показа (Новинки AVI/MKV) [ 3.26 GB ] Жертва / Sacrifice [2019 WEB-DL 720p] MVO ["Синема УС"] bober100 Скачать
1 | 0
National Geographic [ 3.43 GB ] National Geographic: От Дня "Д" до Парижа: Жертва / D-Day Sacrifice / [2014 ДокументальныйHDTVRip 720 ] Armstrong Скачать
1 | 0
T Фильмы 2016 (Звук TS, Cam, VO, DVO) [ 1.33 GB ] Жертва / Sacrifice [2016 Ирландия HDRip] [DVO] killermax2013 Скачать
1 | 0
T Фильмы 2016 (Звук TS, Cam, VO, DVO) [ 1.42 GB ] Жертва / Sacrifice [2016 Ирландия HDRip] [VO] killermax2013 Скачать
1 | 0
T Фильмы (Blu-ray, BD-Remux, HDDVD) [ 20.41 GB ] Жертва / Sacrifice [2016 BDRemux 1080p] Любительский / Xixidok Russian Mafia Скачать
1 | 0
Фильмы без перевода [ 18.08 GB ] Жертва / Sacrifice [2016 BD Remux] [Оригинал] smaster Скачать
1 | 0


Последний раз редактировалось: bober100 (2021-11-16 19:03), всего редактировалось 1 раз

28-11-2019 20:33  

Отключить всю рекламу на сайте

16-11-2021 12:29 Жертва Скачать торрент  

Ну, надо же... Барбара, звезда "Реаниматоров" и "Извне"... Ностальгия....pb.wtf



    Дорогой пользователь! Огромная просьба, поблагодарите релизера, оцените раздачу и оставьте свои комментарий, если Вы скачали Жертва через торрент бесплатно!
    Комментировать посты могут только пользователи прошедшие не сложную регистрацию
    Показать сообщения:    

    Жертва через торрент
    Скачать бесплатно Жертва
    Жертва скачать торрент
    Жертва смотреть онлайн
    Cкачать фильм Жертва бесплатно
    Жертва скачать торрент в хорошем качестве
    Жертва смотреть онлайн бесплатно в хорошем качестве


    Вы не можете начинать темы
    Вы не можете отвечать на сообщения
    Вы не можете редактировать свои сообщения
    Вы не можете удалять свои сообщения
    Вы не можете голосовать в опросах
    Вы не можете прикреплять файлы к сообщениям
    Вы можете скачивать файлы