Всегда рабочее зеркало без VPN и Proxy просто перед .vidak.icu напиши любое слово или цифру, Пример http://evt9.vidak.icu

MVO

2 сезон

2 сезон

1

1 сезон

iTunes

2 сезон

13

1 сезон

Распродажа

pack

Рекомендуем

Пиратка

30

ВАЖНО

RePack

MK11

RePack

jed

RePack

fifa19

RePack

RDR2

RePack

NEED FOR SPEED™ PAYBACK

Кинопоиск HD

6 сезон

 Острые козырьки 6 сезон

Все сериалы

все сериалы на PB.wtf

RePack

FAR CRY 5

Anonymous, нам критически не хватает 5601 руб. на оплату серверов и переферии за Апрель, помоги нам пожалуйста, вся надежда только на тебя. В благодарность мы отключим тебе всю рекламу на сайте!

×
  
Magnet ссылка

21 мост / 21 Bridges (Брайан Кирк) [2019 г., Боевик, триллер, драма, криминал, BDRip 720p / 60 FPS, Дубляж iTunes] от R.G. HD-Films pb.wtf

21 мост через торрент pb.wtf

Раздают: 3 [ 0 KB/s ]
Размер: 3.34 GB | Добавлен: 6 мес. назад | Торрент скачан:141 раз
Смотреть онлайн 21 мост | Скачать    Ребята, помогите собрать деньги на оплату серверов!!!

16-11-2021 11:39 21 мост Скачать торрент  

21 мост / 21 Bridges
Год выпуска: 2019
Страна: США
Жанр: Боевик, триллер, драма, криминал
Продолжительность: 01:39:45
Перевод: Дубляж iTunes

Режиссер: Брайан Кирк

Бюджет: $33 000 000
Премьера в мире: 25 сентября 2019

rating

В ролях: Чэдвик Боузмэн, Сиенна Миллер, Тейлор Китч, Дж.К. Симмонс, Стэфан Джеймс, Кит Дэвид, Александр Сиддиг, Луис Канселми, Виктория Картахена, Гари Карр

Описание: Он охотится на преступников, которые совершили на Манхэттене дерзкое ограбление, оставив после себя 8 мертвых полицейских. А продажные копы тем временем охотятся на него, пытаясь подставить. Но преступникам не скрыться, так как первый раз в истории Нью-Йорка полиция перекрыла все выходы с острова, в том числе 21 мост.


Качество: BDRip 720p / 60 FPS
Формат: MKV
Видео кодек: H.264
Аудио кодек: AC3
Видео: x264, 1280 x 536 ( 2,40:1 ), 4400 kbps, 60,000 fps, ( 0.107 bpp)
Аудио#1: Русский, AC-3, 48.0 KHz, 6 ch, 384 Kbps Dub ( iTunes )
Релиз от: Автор рипа: slaventi-69
x264 [info]: profile High, level 4.1
x264 [info]: frame I:1318 Avg QP:15.00 size: 73745
x264 [info]: frame P:79774 Avg QP:15.98 size: 20158
x264 [info]: frame B:278005 Avg QP:18.06 size: 5706
x264 [info]: consecutive B-frames: 1.3% 1.9% 6.3% 14.7% 58.3% 17.6%

Общее
Уникальный идентификатор : 300803787160210372131843623376007272190 (0xE24CB3BD546D606DBD4DC7B39DCD16FE)
Полное имя : F:\60 FPS\21_Bridges.(2019).BDRip.720p,(60 Fps).mkv
Формат : Matroska
Версия формата : Version 4
Размер файла : 3,34 Гбайт
Продолжительность : 1 ч. 39 м.
Общий поток : 4788 Кбит/сек
Название фильма : 21 мост / 21 Bridges (2019) BDRip 720p (60 Fps)
Дата кодирования : UTC 2021-11-10 11:36:54
Программа кодирования : mkvmerge v56.1.0 ('My Friend') 32-bit
Библиотека кодирования : libebml v1.4.2 + libmatroska v1.6.4

Видео
Идентификатор : 1
Формат : AVC
Формат/Информация : Advanced Video Codec
Профиль формата : High@L4.1
Настройки формата : CABAC / 9 Ref Frames
Параметр CABAC формата : Да
Параметр RefFrames формата : 9 кадров
Идентификатор кодека : V_MPEG4/ISO/AVC
Продолжительность : 1 ч. 39 м.
Битрейт : 4400 Кбит/сек
Ширина : 1280 пикселей
Высота : 536 пикселей
Соотношение сторон : 2,40:1
Режим частоты кадров : Постоянный
Частота кадров : 60,000 кадров/сек
Цветовое пространство : YUV
Субдискретизация насыщенности : 4:2:0
Битовая глубина : 8 бит
Тип развёртки : Прогрессивная
Бит/(Пиксели*Кадры) : 0.107
Размер потока : 3,07 Гбайт (92%)
Заголовок : slaventi-69 ( R.G. HD-Films | 60 fps )
Библиотека кодирования : x264 core 130 r2273 b3065e6
Настройки программы : cabac=1 / ref=10 / deblock=1:-3:-3 / analyse=0x3:0x133 / me=umh / subme=9 / psy=1 / psy_rd=1.00:0.00 / mixed_ref=1 / me_range=32 / chroma_me=1 / trellis=2 / 8x8dct=1 / cqm=0 / deadzone=21,11 / fast_pskip=0 / chroma_qp_offset=-2 / threads=10 / lookahead_threads=4 / sliced_threads=0 / nr=0 / decimate=1 / interlaced=0 / bluray_compat=0 / constrained_intra=0 / bframes=5 / b_pyramid=1 / b_adapt=2 / b_bias=0 / direct=2 / weightb=1 / open_gop=0 / weightp=2 / keyint=600 / keyint_min=23 / scenecut=40 / intra_refresh=0 / rc=crf / mbtree=0 / crf=16.5 / qcomp=0.60 / qpmin=0 / qpmax=69 / qpstep=4 / ip_ratio=1.40 / pb_ratio=1.30 / aq=1:1.00
Язык : English
Default : Да
Forced : Нет

Аудио
Идентификатор : 2
Формат : AC-3
Формат/Информация : Audio Coding 3
Коммерческое название : Dolby Digital
Идентификатор кодека : A_AC3
Продолжительность : 1 ч. 39 м.
Вид битрейта : Постоянный
Битрейт : 384 Кбит/сек
Каналы : 6 каналов
Channel layout : L R C LFE Ls Rs
Частота : 48,0 КГц
Частота кадров : 31,250 кадров/сек (1536 SPF)
Битовая глубина : 16 бит
Метод сжатия : С потерями
Размер потока : 274 Мбайт (8%)
Заголовок : (iTunes)
Язык : Russian
ServiceKind/String : Complete Main
Default : Да
Forced : Нет

Просьба к переливающим на другие сайты, в оформлении указывайте пожалуйста авторство группы R.G. HD-Films pb.wtf



Скачать 21 мост через торрент https://img15.lostpic.net/2020/02/03/dea7b92f42337d5e5d7dac98f6d1f3bb.jpg Скачать, смотреть онлайн 21 мост бесплантно в хорошем качестве Описание: Он охотится на преступников, которые совершили на Манхэттене дерзкое ограбление, оставив после себя 8 мертвых полицейских. А ... 9.5 10 15
Info! Золотая раздача, скачанное не засчитывается.
Торрент: Зарегистрирован [2021-11-16 11:39] · скачан: 141 раз
Статус: √ проверено
Размер: 3.34 GB
Как cкачать? Как скачать 21 мост через торрент | UTorrent

28-11-2019 20:33  

Отключить всю рекламу на сайте

16-11-2021 15:09 21 мост Скачать торрент  

Хороший фильм..pb.wtf



    Дорогой пользователь! Огромная просьба, поблагодарите релизера, оцените раздачу и оставьте свои комментарий, если Вы скачали 21 мост через торрент бесплатно!
    Комментировать посты могут только пользователи прошедшие не сложную регистрацию
    Показать сообщения:    

    21 мост через торрент
    Скачать бесплатно 21 мост
    21 мост скачать торрент
    21 мост смотреть онлайн
    Cкачать фильм 21 мост бесплатно
    21 мост скачать торрент в хорошем качестве
    21 мост смотреть онлайн бесплатно в хорошем качестве


    Вы не можете начинать темы
    Вы не можете отвечать на сообщения
    Вы не можете редактировать свои сообщения
    Вы не можете удалять свои сообщения
    Вы не можете голосовать в опросах
    Вы не можете прикреплять файлы к сообщениям
    Вы можете скачивать файлы