Присоединяйтесь к нам в Telegram!, здесь всегда актуальный адрес сайта, оперативная поддержка и многое другое!!

>

5.9

iTunes

7.4

iTunes

9.4

1 сезон

1

7.4

2 сезон

7.2

iTunes

7.3

1 сезон

13

6.1

iTunes

8.3

GOG

30

ULTIMATE

pack

9.9

Лицензия

ВАЖНО

ИГРА 18+

pack

7.3

RePack

MK11

7.7

RePack

jed

7.8

RePack

fifa19

8.5

RePack

RDR2

RePack

NEED FOR SPEED™ PAYBACK

5 сезон

9 сезон

Бесстыжие 9 сезон

Все сериалы

все сериалы на PB.wtf

RePack

FAR CRY 5

Anonymous, добрый вечер, мы катастрофически не успеваем собрать деньги на оплату серверов, помогите нам пожалуйста 5,10,15р., для нас важна любая помощь . В качестве благодарности мы отключим Вам всю рекламу на сайте (укажите свой ник в строку Ваше имя)!

×
  
Magnet ссылка

Никогда не сдавайся: Бунт / Never Back Down: Revolt (Келли Мэдисон) [2021, Боевик, драма, спорт, BDRip-AVC] MVO [КиноПоиск HD] от ExKinoRay pb.wtf

Никогда не сдавайся: Бунт через торрент pb.wtf

Раздают: 1 [ 94 KB/s ]
Размер: 2.25 GB | Добавлен: 14 д. назад | Торрент скачан:19 раз
Смотреть онлайн Никогда не сдавайся: Бунт | Скачать    Ребята, помогите собрать деньги на оплату серверов!!!

16-11-2021 17:48 Никогда не сдавайся: Бунт Скачать торрент  


Никогда не сдавайся: Бунт / Never Back Down: Revolt
Информация о фильме:
Название: Никогда не сдавайся: Бунт
Оригинальное название: Never Back Down: Revolt
Год выхода: 2021
Жанр: Боевик, драма, спорт
Режиссер: Келли Мэдисон

В ролях: Джеймс Фолкнер, Майкл Биспинг, Ханна аль Рашид, Ниту Чандра, Томми Бастоу, Камерон Джек, Кристофер Сиуреф, Диана Патрисия Ойос, Оливия Попика, Ли Чарльз

Описание: Анна отправляется в Рим, чтобы защитить честь своего брата — принять участие в боксерском поединке. По прибытии Анна осознает, что оказалась среди многих похищенных девушек, которые вынуждены сражаться на ринге за смертоносный синдикат торговцев людьми. Единственный вариант Анны — сдаться требованиям похитителей или объединиться с другими похищенными бойцами и поднять бунт.



Страна: США
Студия: Fiction Films, Mandalay Pictures, Post Haste Sound, Wonder Street
Продолжительность: 01:29:27
Перевод: Профессиональный (многоголосый, закадровый) - Кинопоиск HD



Информация о файле:
Кодек: AVC
Формат: MKV
Качество: BDRip-AVC | Never.Back.Down.Revolt.2021.BDREMUX.1080p.seleZen
Видео: MPEG-4 AVC, 1024x512, 23.976 fps, 2700 kbps
Аудио RU: AC3, 6 ch, 48 kHz, 448 kbps
Аудио EN: AC3, 6 ch, 48 kHz, 448 kbps
Субтитры: Русские (Forced, full), английские

x264 info: frame I:1242 Avg QP:10.98 size: 90241
x264 info: frame P:28447 Avg QP:14.20 size: 30270
x264 info: frame B:98994 Avg QP:15.98 size: 8468
x264 info: consecutive B-frames: 3.1% 3.7% 8.5% 19.8% 14.6% 28.3% 6.2% 9.6% 3.1% 1.7% 1.4%
General
Unique ID : 66401679040535075694463375179441156375 (0x31F47F8A2D8357C77DF7647EC14AB117)
Complete name : D:uTorrentРипы wolf1245Never.Back.Down.Revolt.2021.MVO.KHD.BDRip-AVC.[wolf1245.ExKinoRay].mkv
Format : Matroska
Format version : Version 4
File size : 2.25 GiB
Duration : 1 h 29 min
Overall bit rate : 3 598 kb/s
Movie name : Never.Back.Down.Revolt.2021.MVO.KHD.BDRip-AVC.[wolf1245.ExKinoRay]
Encoded date : UTC 2021-11-16 17:31:26
Writing application : mkvmerge v63.0.0 ('Everything') 64-bit
Writing library : libebml v1.4.2 + libmatroska v1.6.4
Video
ID : 1
Format : AVC
Format/Info : Advanced Video Codec
Format profile : High@L4.1
Format settings : CABAC / 12 Ref Frames
Format settings, CABAC : Yes
Format settings, Reference frames : 12 frames
Codec ID : V_MPEG4/ISO/AVC
Duration : 1 h 29 min
Bit rate : 2 700 kb/s
Width : 1 024 pixels
Height : 512 pixels
Display aspect ratio : 2.000
Frame rate mode : Constant
Frame rate : 23.976 (24000/1001) FPS
Color space : YUV
Chroma subsampling : 4:2:0
Bit depth : 8 bits
Scan type : Progressive
Bits/(Pixel*Frame) : 0.215
Stream size : 1.69 GiB (75%)
Title : .[wolf1245.ExKinoRay]
Writing library : x264 core 161 r3020 d198931
Encoding settings : cabac=1 / ref=12 / deblock=1:-3:-3 / analyse=0x3:0x133 / me=umh / subme=11 / psy=1 / psy_rd=1.02:0.05 / mixed_ref=1 / me_range=48 / chroma_me=1 / trellis=2 / 8x8dct=1 / cqm=0 / deadzone=21,11 / fast_pskip=1 / chroma_qp_offset=-3 / threads=10 / lookahead_threads=2 / sliced_threads=0 / nr=0 / decimate=0 / interlaced=0 / bluray_compat=0 / constrained_intra=0 / bframes=10 / b_pyramid=2 / b_adapt=2 / b_bias=0 / direct=3 / weightb=1 / open_gop=0 / weightp=2 / keyint=240 / keyint_min=24 / scenecut=40 / intra_refresh=0 / rc_lookahead=60 / rc=2pass / mbtree=0 / bitrate=2700 / ratetol=1.0 / qcomp=0.60 / qpmin=0 / qpmax=69 / qpstep=4 / cplxblur=20.0 / qblur=0.5 / vbv_maxrate=50000 / vbv_bufsize=62500 / nal_hrd=none / filler=0 / ip_ratio=1.40 / pb_ratio=1.30 / aq=1:0.80
Language : English
Default : Yes
Forced : No
Audio #1
ID : 2
Format : AC-3
Format/Info : Audio Coding 3
Commercial name : Dolby Digital
Codec ID : A_AC3
Duration : 1 h 29 min
Bit rate mode : Constant
Bit rate : 448 kb/s
Channel(s) : 6 channels
Channel layout : L R C LFE Ls Rs
Sampling rate : 48.0 kHz
Frame rate : 31.250 FPS (1536 SPF)
Compression mode : Lossy
Stream size : 287 MiB (12%)
Title : MVO [Kinopoisk HD]
Language : Russian
Service kind : Complete Main
Default : No
Forced : No
Audio #2
ID : 3
Format : AC-3
Format/Info : Audio Coding 3
Commercial name : Dolby Digital
Codec ID : A_AC3
Duration : 1 h 29 min
Bit rate mode : Constant
Bit rate : 448 kb/s
Channel(s) : 6 channels
Channel layout : L R C LFE Ls Rs
Sampling rate : 48.0 kHz
Frame rate : 31.250 FPS (1536 SPF)
Compression mode : Lossy
Stream size : 287 MiB (12%)
Title : Original
Language : English
Service kind : Complete Main
Default : Yes
Forced : No
Text #1
ID : 4
Format : UTF-8
Codec ID : S_TEXT/UTF8
Codec ID/Info : UTF-8 Plain Text
Duration : 58 min 38 s
Bit rate : 0 b/s
Count of elements : 4
Stream size : 167 Bytes (0%)
Title : Forced
Language : Russian
Default : Yes
Forced : Yes
Text #2
ID : 5
Format : UTF-8
Codec ID : S_TEXT/UTF8
Codec ID/Info : UTF-8 Plain Text
Duration : 1 h 28 min
Bit rate : 56 b/s
Count of elements : 758
Stream size : 36.4 KiB (0%)
Title : Full
Language : Russian
Default : No
Forced : No
Text #3
ID : 6
Format : UTF-8
Codec ID : S_TEXT/UTF8
Codec ID/Info : UTF-8 Plain Text
Duration : 43 min 4 s
Bit rate : 0 b/s
Count of elements : 3
Stream size : 69.0 Bytes (0%)
Title : Forced
Language : English
Default : No
Forced : No
Text #4
ID : 7
Format : UTF-8
Codec ID : S_TEXT/UTF8
Codec ID/Info : UTF-8 Plain Text
Duration : 1 h 22 min
Bit rate : 41 b/s
Count of elements : 754
Stream size : 24.8 KiB (0%)
Title : Full
Language : English
Default : No
Forced : No
Text #5
ID : 8
Format : UTF-8
Codec ID : S_TEXT/UTF8
Codec ID/Info : UTF-8 Plain Text
Duration : 1 h 26 min
Bit rate : 49 b/s
Count of elements : 945
Stream size : 31.3 KiB (0%)
Title : SDH
Language : English
Default : No
Forced : No
Menu
00:00:00.000 : :Chapter 01
00:04:12.085 : :Chapter 02
00:09:39.370 : :Chapter 03
00:15:09.700 : :Chapter 04
00:19:49.980 : :Chapter 05
00:25:51.842 : :Chapter 06
00:31:07.449 : :Chapter 07
00:36:53.878 : :Chapter 08
00:39:53.474 : :Chapter 09
00:44:01.389 : :Chapter 10
00:47:29.889 : :Chapter 11
00:53:15.359 : :Chapter 12
00:59:19.431 : :Chapter 13
01:02:21.446 : :Chapter 14
01:08:12.255 : :Chapter 15
01:17:26.892 : :Chapter 16
Релиз от:
Автор релиза:
pb.wtf



Скачать Никогда не сдавайся: Бунт через торрент https://i116.fastpic.org/big/2021/1116/c9/03bf63746e4009df9e58dd1f74f7eac9.jpg Скачать, смотреть онлайн Никогда не сдавайся: Бунт бесплантно в хорошем качестве Описание: Анна отправляется в Рим, чтобы защитить честь своего брата — принять участие в боксерском поединке. По прибытии Анна осознает, ... 10 10 3
Торрент: Зарегистрирован [2021-11-16 17:48] · скачан: 19 раз
Статус: √ проверено
Размер: 2.25 GB
Как cкачать? Как скачать Никогда не сдавайся: Бунт через торрент | UTorrent

28-11-2019 20:33  

Отключить всю рекламу на сайте

18-11-2021 17:29 Никогда не сдавайся: Бунт Скачать торрент  

Цитата:

Оливия Попика

Хорошая фамилия для девушки pb.wtf



    Дорогой пользователь! Огромная просьба, поблагодарите релизера, оцените раздачу и оставьте свои комментарий, если Вы скачали Никогда не сдавайся: Бунт через торрент бесплатно!
    Комментировать посты могут только пользователи прошедшие не сложную регистрацию
    Показать сообщения:    

    Никогда не сдавайся: Бунт через торрент
    Скачать бесплатно Никогда не сдавайся: Бунт
    Никогда не сдавайся: Бунт скачать торрент
    Никогда не сдавайся: Бунт смотреть онлайн
    Cкачать фильм Никогда не сдавайся: Бунт бесплатно
    Никогда не сдавайся: Бунт скачать торрент в хорошем качестве
    Никогда не сдавайся: Бунт смотреть онлайн бесплатно в хорошем качестве


    Вы не можете начинать темы
    Вы не можете отвечать на сообщения
    Вы не можете редактировать свои сообщения
    Вы не можете удалять свои сообщения
    Вы не можете голосовать в опросах
    Вы не можете прикреплять файлы к сообщениям
    Вы можете скачивать файлы