Присоединяйтесь к нам в Telegram!, здесь всегда актуальный адрес сайта, оперативная поддержка и многое другое!!

>

5.9

iTunes

7.4

iTunes

9.4

1 сезон

1

7.4

2 сезон

7.2

iTunes

7.3

1 сезон

13

6.1

iTunes

8.3

GOG

30

ULTIMATE

pack

9.9

Лицензия

ВАЖНО

ИГРА 18+

pack

7.3

RePack

MK11

7.7

RePack

jed

7.8

RePack

fifa19

8.5

RePack

RDR2

RePack

NEED FOR SPEED™ PAYBACK

5 сезон

9 сезон

Бесстыжие 9 сезон

Все сериалы

все сериалы на PB.wtf

RePack

FAR CRY 5

Anonymous, доброй ночи, мы катастрофически не успеваем собрать деньги на оплату серверов, помогите нам пожалуйста 5,10,15р., для нас важна любая помощь . В качестве благодарности мы отключим Вам всю рекламу на сайте (укажите свой ник в строку Ваше имя)!

×
  
Magnet ссылка

Бегущий по лезвию: Чёрный лотос / Blade Runner: Black Lotus / Сезон: 1 / Серии: 1-3 из 13 (Синдзи Арамаки, Кэндзи Камияма) [2021, Аниме, мультфильм, фантастика, детектив, боевик, WEBRip] MVO [TVShows] pb.wtf

Бегущий по лезвию: Чёрный лотос через торрент pb.wtf

Размер: 828 MB | Добавлен: 8 д. назад | Торрент скачан:14 раз
Смотреть онлайн Бегущий по лезвию: Чёрный лотос | Скачать    Ребята, помогите собрать деньги на оплату серверов!!!

16-11-2021 17:53 Бегущий по лезвию: Чёрный лотос Скачать торрент  

Бегущий по лезвию: Чёрный лотос
Blade Runner: Black Lotus

Год выпуска: 2021
Страна: Япония, США
Выпущено: Alcon Entertainment, Alcon Television Group, Crunchyroll, Scott Free Productions, Sola Digital Arts, Williams Street
Жанр: Аниме, мультфильм, фантастика, детектив, боевик
Продолжительность: ~ 00:22:00
Перевод: Профессиональный (многоголосый) | TVShows
Субтитры: отсутствуют

Режиссер: Синдзи Арамаки, Кэндзи Камияма

rating

В ролях: Брайан Кокс, Пейтон Лист, Уэс Бентли, Джессика Хенвик, Джош Дюамель, Стивен Рут, Грегг Генри, Уилл Юн Ли, Самира Уайли, Илайс Туфексис

Описание: Лос-Анджелес, 2032 год. Девушка приходит в себя и ничего не может вспомнить, зато обнаруживает, что обладает смертоносными навыками, татуировкой в виде чёрного лотоса и странным устройством. Пытаясь вернуть воспоминания, она начинает поиски истины.

Качество: WEBRip
Формат: AVI

Видео: 720x400 (1.80:1), 23.976 fps, XviD build 69 ~1500 kbps avg, 0.22 bit/pixel
Аудио: 48.0 kHz, AC3 Dolby Digital, 2/0 (L,R) ch, ~ 192 kbps
скриншот  скриншот  скриншот  скриншот  

Общее
Полное имя : D:\Blade.Runner.Black.Lotus.S01.400p.FilmsClub\Blade.Runner.Black.Lotus.S01E01.400p.FilmsClub.avi
Формат : AVI
Формат/Информация : Audio Video Interleave
Размер файла : 274 Мбайт
Продолжительность : 22 м. 27 с.
Общий поток : 1 703 Кбит/сек
Программа кодирования : Lavf58.45.100

Видео
Идентификатор : 0
Формат : MPEG-4 Visual
Профиль формата : Advanced Simple@L5
Настройки формата : BVOP1 / Custom Matrix
Параметр BVOP формата : 1
Параметр QPel формата : Нет
Параметр GMC формата : Без точки перехода
Параметр матрицы формата : Выборочная
Идентификатор кодека : XVID
Идентификатор кодека/Подсказка : XviD
Продолжительность : 22 м. 27 с.
Битрейт : 1 485 Кбит/сек
Ширина : 720 пикселей
Высота : 400 пикселей
Соотношение сторон : 16:9
Частота кадров : 23,976 (24000/1001) кадра/сек
Цветовое пространство : YUV
Субдискретизация насыщенности : 4:2:0
Битовая глубина : 8 бит
Тип развёртки : Прогрессивная
Метод сжатия : С потерями
Бит/(Пиксели*Кадры) : 0.208
Размер потока : 231 Мбайт (84%)
Библиотека кодирования : XviD 69

Аудио
Идентификатор : 1
Формат : AC-3
Формат/Информация : Audio Coding 3
Коммерческое название : Dolby Digital
Идентификатор кодека : 2000
Продолжительность : 22 м. 27 с.
Вид битрейта : Постоянный
Битрейт : 192 Кбит/сек
Каналы : 2 канала
Channel layout : L R
Частота : 48,0 КГц
Частота кадров : 31,250 кадров/сек (1536 SPF)
Битовая глубина : 16 бит
Метод сжатия : С потерями
Размер потока : 30,9 Мбайт (11%)
Выравнивание : Соединение по промежуткам
Service kind : Complete Main

Раздача ведётся путём добавления новых серий, при каждом добавлении создаётся новый торрент. Чтобы начать докачку новой серии, пользователям необходимо сделать следующее:
- Остановить скачивание.
- Удалить старый торрент у себя из клиента (старые серии удалять не надо).
- Скачать новый торрент и запустить его у себя в клиенте вместо старого, при этом указать клиенту путь в старую папку куда и должно происходить скачивание новых серий.
Ваш клиент при этом должен произвести хеширование (проверку) старой папки (если не производит сам - помогите ему сделать это), и будет докачивать только те серии которых у вас ещё нет. Старые серии при этом не удаляются, а продолжают раздаваться!
pb.wtf



Скачать Бегущий по лезвию: Чёрный лотос через торрент https://i116.fastpic.org/big/2021/1116/5e/b79d7c25b462e685747890a606d37f5e.jpg Скачать, смотреть онлайн Бегущий по лезвию: Чёрный лотос бесплантно в хорошем качестве Описание: Лос-Анджелес, 2032 год. Девушка приходит в себя и ничего не может вспомнить, зато обнаруживает, что обладает смертоносными ... 10 10 2
Торрент: Зарегистрирован [2021-11-23 22:35] · скачан: 14 раз
Статус: √ проверено
Размер: 828 MB
Как cкачать? Как скачать Бегущий по лезвию: Чёрный лотос через торрент | UTorrent

28-11-2019 20:33  

Отключить всю рекламу на сайте

    Дорогой пользователь! Огромная просьба, поблагодарите релизера, оцените раздачу и оставьте свои комментарий, если Вы скачали Бегущий по лезвию: Чёрный лотос через торрент бесплатно!
    Комментировать посты могут только пользователи прошедшие не сложную регистрацию
    Показать сообщения:    

    Бегущий по лезвию: Чёрный лотос через торрент
    Скачать бесплатно Бегущий по лезвию: Чёрный лотос
    Бегущий по лезвию: Чёрный лотос скачать торрент
    Бегущий по лезвию: Чёрный лотос смотреть онлайн
    Cкачать фильм Бегущий по лезвию: Чёрный лотос бесплатно
    Бегущий по лезвию: Чёрный лотос скачать торрент в хорошем качестве
    Бегущий по лезвию: Чёрный лотос смотреть онлайн бесплатно в хорошем качестве


    Вы не можете начинать темы
    Вы не можете отвечать на сообщения
    Вы не можете редактировать свои сообщения
    Вы не можете удалять свои сообщения
    Вы не можете голосовать в опросах
    Вы не можете прикреплять файлы к сообщениям
    Вы можете скачивать файлы