Присоединяйтесь к нам в Telegram!, здесь всегда актуальный адрес сайта, оперативная поддержка и многое другое!!

>

5.9

iTunes

7.4

iTunes

9.4

1 сезон

1

7.4

2 сезон

7.2

iTunes

7.3

1 сезон

13

6.1

iTunes

8.3

GOG

30

ULTIMATE

pack

9.9

Лицензия

ВАЖНО

ИГРА 18+

pack

7.3

RePack

MK11

7.7

RePack

jed

7.8

RePack

fifa19

8.5

RePack

RDR2

RePack

NEED FOR SPEED™ PAYBACK

5 сезон

9 сезон

Бесстыжие 9 сезон

Все сериалы

все сериалы на PB.wtf

RePack

FAR CRY 5

Anonymous, доброй ночи, мы катастрофически не успеваем собрать деньги на оплату серверов, помогите нам пожалуйста 5,10,15р., для нас важна любая помощь . В качестве благодарности мы отключим Вам всю рекламу на сайте (укажите свой ник в строку Ваше имя)!

×
  
Magnet ссылка

Последний заезд / Водитель / The Driver (Вич Каосаянанда) [2019, Боевик, ужасы, HDRip-AVC] DUB [iTunes] от ExKinoRay pb.wtf

Последний заезд через торрент pb.wtf

Раздают: 5 [ 10 KB/s ]
Размер: 1.9 GB | Добавлен: 15 д. назад | Торрент скачан:44 раза
Смотреть онлайн Последний заезд | Скачать    Ребята, помогите собрать деньги на оплату серверов!!!

16-11-2021 19:57 Последний заезд Скачать торрент  


Последний заезд / Водитель / The Driver
Информация о фильме:
Название: Последний заезд / Водитель
Оригинальное название: The Driver
Год выхода: 2019
Жанр: Боевик, ужасы
Режиссер: Вич Каосаянанда

В ролях: Марк Дакаскос, Джули Кондра, Ноэлани Дакаскос, Джереми Стьютс, Адам Захари Смит, Чарли Рюдпоканон, Майкл С. Нью, Милена Горум, Элис Тантаянон, Келли Б. Джонс

Описание: Он бывший наемный убийца, и он в совершенстве владеет навыками смертоносного мастерства. В постапокалиптическом мире он состоит на службе у местного тирана, управляющего поселением выживших после нашествия зомби. Это не приносит ему популярности среди окружающих, но ему надо содержать семью и обеспечивать ее защиту. Он — Водитель. После нападения рейдеров поселение заполняют кровожадные зомби, разрушая все на своем пути. Герою приходится бежать со своей дочерью Бри в безлюдные места, где царит беззаконие, попутно обучая ее искусству выживания в Аду.



Страна: Таиланд
Студия: Kaos Entertainment
Продолжительность: 01:37:31
Перевод: Дублированный - iTunes



Информация о файле:
Кодек: AVC
Формат: MKV
Качество: HDRip-AVC
Видео: MPEG-4 AVC, 1024x428, 23.976 fps, 1950 kbps
Аудио RU: AC3, 6 ch, 48 kHz, 384 kbps
Аудио EN: AC3, 6 ch, 48 kHz, 448 kbps

x264 info: frame I:938 Avg QP:12.93 size: 60353
x264 info: frame P:35073 Avg QP:15.25 size: 21472
x264 info: frame B:104281 Avg QP:16.78 size: 5915
x264 info: consecutive B-frames: 3.7% 4.5% 11.6% 22.0% 22.1% 32.9% 2.3% 0.3% 0.2% 0.1% 0.2%
General
Unique ID : 333535835516078051885369950959131176079 (0xFAECAA520FCF538EF443A5DC63E82C8F)
Complete name : D:uTorrentРипы wolf1245The Driver.2019.DUB.iTunes.HDRip-AVC.[wolf1245.ExKinoRay].mkv
Format : Matroska
Format version : Version 4
File size : 1.90 GiB
Duration : 1 h 37 min
Overall bit rate : 2 784 kb/s
Movie name : The Driver.2019.DUB.iTunes.HDRip-AVC.[wolf1245.ExKinoRay]
Encoded date : UTC 2021-11-16 19:42:59
Writing application : mkvmerge v63.0.0 ('Everything') 64-bit
Writing library : libebml v1.4.2 + libmatroska v1.6.4
Video
ID : 1
Format : AVC
Format/Info : Advanced Video Codec
Format profile : High@L4.1
Format settings : CABAC / 12 Ref Frames
Format settings, CABAC : Yes
Format settings, Reference frames : 12 frames
Codec ID : V_MPEG4/ISO/AVC
Duration : 1 h 37 min
Bit rate : 1 950 kb/s
Width : 1 024 pixels
Height : 428 pixels
Display aspect ratio : 2.40:1
Frame rate mode : Constant
Frame rate : 23.976 (24000/1001) FPS
Color space : YUV
Chroma subsampling : 4:2:0
Bit depth : 8 bits
Scan type : Progressive
Bits/(Pixel*Frame) : 0.186
Stream size : 1.33 GiB (70%)
Title : -=[wolf1245.ExKinoRay]=-
Writing library : x264 core 161 r3020 d198931
Encoding settings : cabac=1 / ref=12 / deblock=1:-3:-3 / analyse=0x3:0x133 / me=umh / subme=9 / psy=1 / psy_rd=1.02:0.03 / mixed_ref=1 / me_range=48 / chroma_me=1 / trellis=2 / 8x8dct=1 / cqm=0 / deadzone=21,11 / fast_pskip=1 / chroma_qp_offset=-3 / threads=10 / lookahead_threads=2 / sliced_threads=0 / nr=0 / decimate=0 / interlaced=0 / bluray_compat=0 / constrained_intra=0 / bframes=10 / b_pyramid=2 / b_adapt=2 / b_bias=0 / direct=3 / weightb=1 / open_gop=0 / weightp=2 / keyint=240 / keyint_min=24 / scenecut=40 / intra_refresh=0 / rc_lookahead=60 / rc=2pass / mbtree=0 / bitrate=1950 / ratetol=1.0 / qcomp=0.60 / qpmin=0 / qpmax=69 / qpstep=4 / cplxblur=20.0 / qblur=0.5 / vbv_maxrate=50000 / vbv_bufsize=62500 / nal_hrd=none / filler=0 / ip_ratio=1.40 / pb_ratio=1.30 / aq=0
Language : English
Default : Yes
Forced : No
Audio #1
ID : 2
Format : AC-3
Format/Info : Audio Coding 3
Commercial name : Dolby Digital
Codec ID : A_AC3
Duration : 1 h 37 min
Bit rate mode : Constant
Bit rate : 384 kb/s
Channel(s) : 6 channels
Channel layout : L R C LFE Ls Rs
Sampling rate : 48.0 kHz
Frame rate : 31.250 FPS (1536 SPF)
Compression mode : Lossy
Stream size : 267 MiB (14%)
Title : DUB (iTunes)
Language : Russian
Service kind : Complete Main
Default : Yes
Forced : Yes
Audio #2
ID : 3
Format : AC-3
Format/Info : Audio Coding 3
Commercial name : Dolby Digital
Codec ID : A_AC3
Duration : 1 h 37 min
Bit rate mode : Constant
Bit rate : 448 kb/s
Channel(s) : 6 channels
Channel layout : L R C LFE Ls Rs
Sampling rate : 48.0 kHz
Frame rate : 31.250 FPS (1536 SPF)
Compression mode : Lossy
Stream size : 312 MiB (16%)
Title : Original
Language : English
Service kind : Complete Main
Default : Yes
Forced : No
Menu
00:00:00.000 : :Chapter 01
00:11:15.800 : :Chapter 02
00:19:22.745 : :Chapter 03
00:26:44.353 : :Chapter 04
00:41:25.942 : :Chapter 05
00:48:59.812 : :Chapter 06
00:55:40.045 : :Chapter 07
01:06:32.322 : :Chapter 08
01:13:37.580 : :Chapter 09
01:20:53.807 : :Chapter 10
01:28:50.617 : :Chapter 11
01:35:01.696 : :Chapter 12
Релиз от:
Автор релиза:
pb.wtf



Скачать Последний заезд через торрент https://i6.imageban.ru/out/2021/11/15/5ea103bb313fcb0665fbe3607488ae07.jpg Скачать, смотреть онлайн Последний заезд бесплантно в хорошем качестве Описание: Он бывший наемный убийца, и он в совершенстве владеет навыками смертоносного мастерства. В постапокалиптическом мире он состоит ... 10 10 4
Торрент: Зарегистрирован [2021-11-16 19:57] · скачан: 44 раз
Статус: √ проверено
Размер: 1.9 GB
Как cкачать? Как скачать Последний заезд через торрент | UTorrent

28-11-2019 20:33  

Отключить всю рекламу на сайте

18-11-2021 17:32 Последний заезд Скачать торрент  

Надо было назвать кино: "Последняя роль". Марк Дакаскос скатился, пора на пенсию...pb.wtf



19-11-2021 13:14 Последний заезд Скачать торрент  

Соглашусь с комментарием выше, заинтересовался фильмом только из-за Дакаскоса... Муть невероятная, да и снято такое ощущение школьниками, когда они едут на машине, даже хромакей виден невооруженным взглядом. Однозначно не тратьте свое время, оно того не стоит.pb.wtf



    Дорогой пользователь! Огромная просьба, поблагодарите релизера, оцените раздачу и оставьте свои комментарий, если Вы скачали Последний заезд через торрент бесплатно!
    Комментировать посты могут только пользователи прошедшие не сложную регистрацию
    Показать сообщения:    

    Последний заезд через торрент
    Скачать бесплатно Последний заезд
    Последний заезд скачать торрент
    Последний заезд смотреть онлайн
    Cкачать фильм Последний заезд бесплатно
    Последний заезд скачать торрент в хорошем качестве
    Последний заезд смотреть онлайн бесплатно в хорошем качестве


    Вы не можете начинать темы
    Вы не можете отвечать на сообщения
    Вы не можете редактировать свои сообщения
    Вы не можете удалять свои сообщения
    Вы не можете голосовать в опросах
    Вы не можете прикреплять файлы к сообщениям
    Вы можете скачивать файлы