Присоединяйтесь к нам в Telegram!, здесь всегда актуальный адрес сайта, оперативная поддержка и многое другое!!

>

5.9

iTunes

7.4

iTunes

9.4

1 сезон

1

7.4

2 сезон

7.2

iTunes

7.3

1 сезон

13

6.1

iTunes

8.3

GOG

30

ULTIMATE

pack

9.9

Лицензия

ВАЖНО

ИГРА 18+

pack

7.3

RePack

MK11

7.7

RePack

jed

7.8

RePack

fifa19

8.5

RePack

RDR2

RePack

NEED FOR SPEED™ PAYBACK

5 сезон

9 сезон

Бесстыжие 9 сезон

Все сериалы

все сериалы на PB.wtf

RePack

FAR CRY 5

Anonymous, доброе утро, мы катастрофически не успеваем собрать деньги на оплату серверов, помогите нам пожалуйста 5,10,15р., для нас важна любая помощь . В качестве благодарности мы отключим Вам всю рекламу на сайте (укажите свой ник в строку Ваше имя)!

×
  
Magnet ссылка

Измена / Доверие / Trust (Брайан ДеКьюбелис) [2021, мелодрама, драма, детектив, WEB-DLRip-AVC] DUB [КиноПоиск HD] от ExKinoRay pb.wtf

Измена через торрент pb.wtf

Раздают: 2 [ 0 KB/s ]
Размер: 1.87 GB | Добавлен: 9 д. назад | Торрент скачан:26 раз
Смотреть онлайн Измена | Скачать    Ребята, помогите собрать деньги на оплату серверов!!!

17-11-2021 17:48 Измена Скачать торрент  


Доверие / Trust
Информация о фильме:
Название: Доверие
Оригинальное название: Trust
Год выхода: 2021
Жанр: мелодрама, драма, детектив
Режиссер: Брайан ДеКьюбелис

В ролях: Мэттью Даддарио (Оуэн), Виктория Джастис (Брук), Кэтрин МакНамара (Эми), Люсьен Лависконт (Ансгар), Линдси Броад (Элеанор), Ронни Чиэн (Адам)

Описание: В этой сексуальной, закрученной, детективной истории владелица нью-йоркской галереи Брук и ее муж, тележурналист Оуэн, каждый по отдельности сталкиваются с исключительными искушениями с самыми неожиданными результатами.



Страна: США
Студия: DeCubellis Films, Untravelled Worlds
Продолжительность: 01:34:19
Перевод: Дублированный - Кинопоиск HD



Информация о файле:
Кодек: AVC
Формат: MKV
Качество: WEB-DLRip-AVC
Видео: MPEG-4 AVC, 1024x552, 23,976 fps, 1950 kbps
Аудио RU: AC3, 6 ch, 48 kHz, 448 kbps
Аудио EN: AC3, 6 ch, 48 kHz, 448 kbps
Субтитры: Русские (Forced, full), английские

x264 info: frame I:1162 Avg QP:13.17 size: 78485
x264 info: frame P:29326 Avg QP:16.76 size: 22330
x264 info: frame B:105201 Avg QP:18.42 size: 5912
x264 info: consecutive B-frames: 1.8% 1.8% 6.2% 31.5% 17.4% 28.1% 4.8% 5.4% 0.9% 0.7% 1.3%
General
Unique ID : 29130599360503384879921996046496083110 (0x15EA596FB2D206B2BFC67DBBFB12ACA6)
Complete name : D:uTorrentРипы wolf1245Trust.2021.DUB.KHD.WEB-DLRip-AVC.[wolf1245.ExKinoRay].mkv
Format : Matroska
Format version : Version 4
File size : 1.87 GiB
Duration : 1 h 34 min
Overall bit rate : 2 832 kb/s
Movie name : Trust.2021.DUB.KHD.WEB-DLRip-AVC.[wolf1245.ExKinoRay]
Encoded date : UTC 2021-11-17 17:31:34
Writing application : mkvmerge v63.0.0 ('Everything') 64-bit
Writing library : libebml v1.4.2 + libmatroska v1.6.4
Video
ID : 1
Format : AVC
Format/Info : Advanced Video Codec
Format profile : High@L4.1
Format settings : CABAC / 12 Ref Frames
Format settings, CABAC : Yes
Format settings, Reference frames : 12 frames
Codec ID : V_MPEG4/ISO/AVC
Duration : 1 h 34 min
Bit rate : 1 950 kb/s
Width : 1 024 pixels
Height : 552 pixels
Display aspect ratio : 1.85:1
Frame rate mode : Constant
Frame rate : 23.976 (24000/1001) FPS
Color space : YUV
Chroma subsampling : 4:2:0
Bit depth : 8 bits
Scan type : Progressive
Bits/(Pixel*Frame) : 0.144
Stream size : 1.27 GiB (68%)
Title : -=[wolf1245.ExKinoRay]=-
Writing library : x264 core 161 r3020 d198931
Encoding settings : cabac=1 / ref=12 / deblock=1:-3:-3 / analyse=0x3:0x133 / me=umh / subme=11 / psy=1 / psy_rd=1.02:0.05 / mixed_ref=1 / me_range=48 / chroma_me=1 / trellis=2 / 8x8dct=1 / cqm=0 / deadzone=21,11 / fast_pskip=1 / chroma_qp_offset=-3 / threads=10 / lookahead_threads=2 / sliced_threads=0 / nr=0 / decimate=0 / interlaced=0 / bluray_compat=0 / constrained_intra=0 / bframes=10 / b_pyramid=2 / b_adapt=2 / b_bias=0 / direct=3 / weightb=1 / open_gop=0 / weightp=2 / keyint=240 / keyint_min=24 / scenecut=40 / intra_refresh=0 / rc_lookahead=60 / rc=2pass / mbtree=0 / bitrate=1950 / ratetol=1.0 / qcomp=0.60 / qpmin=0 / qpmax=69 / qpstep=4 / cplxblur=20.0 / qblur=0.5 / vbv_maxrate=50000 / vbv_bufsize=62500 / nal_hrd=none / filler=0 / ip_ratio=1.40 / pb_ratio=1.30 / aq=3:0.80
Language : English
Default : Yes
Forced : No
Color range : Limited
Color primaries : BT.709
Transfer characteristics : BT.709
Matrix coefficients : BT.709
Audio #1
ID : 2
Format : AC-3
Format/Info : Audio Coding 3
Commercial name : Dolby Digital
Codec ID : A_AC3
Duration : 1 h 34 min
Bit rate mode : Constant
Bit rate : 448 kb/s
Channel(s) : 6 channels
Channel layout : L R C LFE Ls Rs
Sampling rate : 48.0 kHz
Frame rate : 31.250 FPS (1536 SPF)
Compression mode : Lossy
Stream size : 302 MiB (16%)
Title : Dub
Language : Russian
Service kind : Complete Main
Default : Yes
Forced : Yes
Audio #2
ID : 3
Format : AC-3
Format/Info : Audio Coding 3
Commercial name : Dolby Digital
Codec ID : A_AC3
Duration : 1 h 34 min
Bit rate mode : Constant
Bit rate : 448 kb/s
Channel(s) : 6 channels
Channel layout : L R C LFE Ls Rs
Sampling rate : 48.0 kHz
Frame rate : 31.250 FPS (1536 SPF)
Compression mode : Lossy
Stream size : 302 MiB (16%)
Title : Original
Language : English
Service kind : Complete Main
Default : Yes
Forced : No
Text #1
ID : 4
Format : UTF-8
Codec ID : S_TEXT/UTF8
Codec ID/Info : UTF-8 Plain Text
Duration : 1 h 9 min
Bit rate : 0 b/s
Count of elements : 8
Stream size : 351 Bytes (0%)
Title : Forced
Language : Russian
Default : Yes
Forced : Yes
Text #2
ID : 5
Format : UTF-8
Codec ID : S_TEXT/UTF8
Codec ID/Info : UTF-8 Plain Text
Duration : 1 h 28 min
Bit rate : 86 b/s
Count of elements : 1368
Stream size : 56.5 KiB (0%)
Title : Full
Language : Russian
Default : No
Forced : No
Text #3
ID : 6
Format : UTF-8
Codec ID : S_TEXT/UTF8
Codec ID/Info : UTF-8 Plain Text
Duration : 1 h 30 min
Bit rate : 63 b/s
Count of elements : 1413
Stream size : 42.1 KiB (0%)
Title : Full
Language : English
Default : No
Forced : No
Text #4
ID : 7
Format : UTF-8
Codec ID : S_TEXT/UTF8
Codec ID/Info : UTF-8 Plain Text
Duration : 1 h 31 min
Bit rate : 66 b/s
Count of elements : 1507
Stream size : 44.6 KiB (0%)
Title : SDH
Language : English
Default : No
Forced : No
Релиз от:
Автор релиза:
pb.wtf



Скачать Измена через торрент https://i116.fastpic.org/big/2021/1117/c3/303a0d9be77e3ad1284939c4d50cf8c3.jpg Скачать, смотреть онлайн Измена бесплантно в хорошем качестве Описание: В этой сексуальной, закрученной, детективной истории владелица нью-йоркской галереи Брук и ее муж, тележурналист Оуэн, каждый ... 10 10 4
Торрент: Зарегистрирован [2021-11-17 17:48] · скачан: 26 раз
Статус: √ проверено
Размер: 1.87 GB
Как cкачать? Как скачать Измена через торрент | UTorrent



Последний раз редактировалось: Lithuania (2021-11-17 19:13), всего редактировалось 1 раз

28-11-2019 20:33  

Отключить всю рекламу на сайте

    Дорогой пользователь! Огромная просьба, поблагодарите релизера, оцените раздачу и оставьте свои комментарий, если Вы скачали Измена через торрент бесплатно!
    Комментировать посты могут только пользователи прошедшие не сложную регистрацию
    Показать сообщения:    

    Измена через торрент
    Скачать бесплатно Измена
    Измена скачать торрент
    Измена смотреть онлайн
    Cкачать фильм Измена бесплатно
    Измена скачать торрент в хорошем качестве
    Измена смотреть онлайн бесплатно в хорошем качестве


    Вы не можете начинать темы
    Вы не можете отвечать на сообщения
    Вы не можете редактировать свои сообщения
    Вы не можете удалять свои сообщения
    Вы не можете голосовать в опросах
    Вы не можете прикреплять файлы к сообщениям
    Вы можете скачивать файлы