Присоединяйтесь к нам в Telegram!, здесь всегда актуальный адрес сайта, оперативная поддержка и многое другое!!

>

5.9

iTunes

7.4

iTunes

9.4

1 сезон

1

7.4

2 сезон

7.2

iTunes

7.3

1 сезон

13

6.1

iTunes

8.3

GOG

30

ULTIMATE

pack

9.9

Лицензия

ВАЖНО

ИГРА 18+

pack

7.3

RePack

MK11

7.7

RePack

jed

7.8

RePack

fifa19

8.5

RePack

RDR2

RePack

NEED FOR SPEED™ PAYBACK

5 сезон

9 сезон

Бесстыжие 9 сезон

Все сериалы

все сериалы на PB.wtf

RePack

FAR CRY 5

Anonymous, доброй ночи, мы катастрофически не успеваем собрать деньги на оплату серверов, помогите нам пожалуйста 5,10,15р., для нас важна любая помощь . В качестве благодарности мы отключим Вам всю рекламу на сайте (укажите свой ник в строку Ваше имя)!

×
  
Magnet ссылка

Вне себя / Сезон: 1 / Серии: 1-4 из 8 (Александр Дулерайн, Клим Козинский) [2021, Триллер, комедия, детектив, WEBRip] pb.wtf

Вне себя через торрент pb.wtf

Размер: 2.32 GB | Добавлен: 6 д. назад | Торрент скачан:24 раза
Смотреть онлайн Вне себя | Скачать    Ребята, помогите собрать деньги на оплату серверов!!!

18-11-2021 00:59 Вне себя Скачать торрент  

Вне себя
Год выпуска: 2021
Страна: Россия
Студия: Производство ООО «1-2-3 Продакшн» по заказу АО «ТНТ-Телесеть»
Жанр: Триллер, комедия, детектив
Продолжительность: ~ 00:45:00 серия
Субтитры: отсутствуют

Режиссер: Александр Дулерайн, Клим Козинский



В ролях: Евгений Стычкин, Евгений Цыганов, Елена Лядова, Анна Котова-Дерябина, Аглая Тарасова, Руслан Банковский, Дмитрий Колчин, Максим Иванов (II), Иван Макаревич, Никита Тарасов, Елена Морозова, Павел Комаров (II), Денис Бургазлиев, Роман Лянчук, Юрий Цурило, Анджи Сепеда, Изабель Эйдлен, Наталья Павленкова, Константин Мурзенко, Александр Соколовский, Гульназ Келсимбаева, Гарик Айвазов, Владимир Брест, Ольга Руднева, Анзор Камариддинов

Описание: У гениального финансиста легкое психическое расстройство — он постоянно окружен фантомами, среди которых его убитая жена и её застрелившийся любовник-следователь. Чтобы избавиться от них, герой начинает расследование смерти жены. Тут его ждут сюрпризы — он сам, его жизнь и люди вокруг начинают открываться совершенно с неожиданной стороны.

Качество: WEBRip
Формат: AVI

Видео: XviD, 720x304, ~ 1650 Кбит/с, 0.300 bit/pixel, 25 Кадр/с
Аудио: 48.0 kHz, AC3 Dolby Digital, 2/0 (L,R) ch, ~ 192 kbps
скриншот  скриншот  скриншот  скриншот  

Общее
Полное имя : D:\Vne.sebya.2021.WEB-DLRip.25Kuzmich\Vne.sebya.e01.WEB-DLRip.25Kuzmich.avi
Формат : AVI
Формат/Информация : Audio Video Interleave
Размер файла : 599 Мбайт
Продолжительность : 45 м. 27 с.
Общий поток : 1 844 Кбит/сек
Программа кодирования : VirtualDubMod 1.5.10.3 | www.virtualdub-fr.org || (build 2550/release)
Библиотека кодирования : VirtualDubMod build 2550/release

Видео
Идентификатор : 0
Формат : MPEG-4 Visual
Профиль формата : Advanced Simple@L5
Настройки формата : BVOP1
Параметр BVOP формата : 1
Параметр QPel формата : Нет
Параметр GMC формата : Без точки перехода
Параметр матрицы формата : Default (MPEG)
Идентификатор кодека : XVID
Идентификатор кодека/Подсказка : XviD
Продолжительность : 45 м. 27 с.
Битрейт : 1 642 Кбит/сек
Ширина : 720 пикселей
Высота : 304 пикселя
Соотношение сторон : 2,35:1
Частота кадров : 25,000 кадров/сек
Цветовое пространство : YUV
Субдискретизация насыщенности : 4:2:0
Битовая глубина : 8 бит
Тип развёртки : Прогрессивная
Метод сжатия : С потерями
Бит/(Пиксели*Кадры) : 0.300
Размер потока : 534 Мбайт (89%)
Библиотека кодирования : XviD 73

Аудио
Идентификатор : 1
Формат : AC-3
Формат/Информация : Audio Coding 3
Коммерческое название : Dolby Digital
Идентификатор кодека : 2000
Продолжительность : 45 м. 27 с.
Вид битрейта : Постоянный
Битрейт : 192 Кбит/сек
Каналы : 2 канала
Channel layout : L R
Частота : 48,0 КГц
Частота кадров : 31,250 кадров/сек (1536 SPF)
Метод сжатия : С потерями
Размер потока : 62,4 Мбайт (10%)
Выравнивание : Разделение по промежуткам
Продолжительность промежутка : 40 мс. (1,00 видеокадр)
Время предзагрузки промежутка : 500 мс.
Service kind : Complete Main

Внимание! Раздача ведётся путём добавления новых серий; при каждом добавлении создаётся новый торрент.
Чтобы начать докачку новой серии, пользователям необходимо сделать следующее:
1. Остановить скачивание;
2. Удалить старый торрент у себя из клиента (старые серии удалять не надо);
3. Скачать новый торрент и запустить его у себя в клиенте вместо старого, при этом указать клиенту путь в старую папку куда и должно происходить скачивание новых серий. Ваш клиент при этом должен произвести хеширование (проверку) старой папки и будет докачивать только те серии, которых у вас ещё нет. Старые серии при этом не удаляются, а продолжают раздаваться! Eсли вы уже удалили старые серии, то предотвратить повторную закачку старых серий можно, отжав галочку в соответствующих местах при запуске нового торрента.

pb.wtf



Скачать Вне себя через торрент https://c.radikal.ru/c27/2111/40/58b02681361e.jpg Скачать, смотреть онлайн Вне себя бесплантно в хорошем качестве Описание: У гениального финансиста легкое психическое расстройство — он постоянно окружен фантомами, среди которых его убитая жена и её ... 8.5 10 6
Торрент: Зарегистрирован [2021-11-25 03:53] · скачан: 24 раз
Статус: √ проверено
Размер: 2.32 GB
Как cкачать? Как скачать Вне себя через торрент | UTorrent

28-11-2019 20:33  

Отключить всю рекламу на сайте

    Дорогой пользователь! Огромная просьба, поблагодарите релизера, оцените раздачу и оставьте свои комментарий, если Вы скачали Вне себя через торрент бесплатно!
    Комментировать посты могут только пользователи прошедшие не сложную регистрацию
    Показать сообщения:    

    Вне себя через торрент
    Скачать бесплатно Вне себя
    Вне себя скачать торрент
    Вне себя смотреть онлайн
    Cкачать фильм Вне себя бесплатно
    Вне себя скачать торрент в хорошем качестве
    Вне себя смотреть онлайн бесплатно в хорошем качестве


    Вы не можете начинать темы
    Вы не можете отвечать на сообщения
    Вы не можете редактировать свои сообщения
    Вы не можете удалять свои сообщения
    Вы не можете голосовать в опросах
    Вы не можете прикреплять файлы к сообщениям
    Вы можете скачивать файлы