Присоединяйтесь к нам в Telegram!, здесь всегда актуальный адрес сайта, оперативная поддержка и многое другое!!

>

5.9

iTunes

7.4

iTunes

9.4

1 сезон

1

7.4

2 сезон

7.2

iTunes

7.3

1 сезон

13

6.1

iTunes

8.3

GOG

30

ULTIMATE

pack

9.9

Лицензия

ВАЖНО

ИГРА 18+

pack

7.3

RePack

MK11

7.7

RePack

jed

7.8

RePack

fifa19

8.5

RePack

RDR2

RePack

NEED FOR SPEED™ PAYBACK

5 сезон

9 сезон

Бесстыжие 9 сезон

Все сериалы

все сериалы на PB.wtf

RePack

FAR CRY 5

Anonymous, доброй ночи, мы катастрофически не успеваем собрать деньги на оплату серверов, помогите нам пожалуйста 5,10,15р., для нас важна любая помощь . В качестве благодарности мы отключим Вам всю рекламу на сайте (укажите свой ник в строку Ваше имя)!

×
  
Magnet ссылка

Разлучённые души / Разлука / Separation (Уильям Брент Белл) [2021, Ужасы, драма, WEB-DLRip-AVC] DUB [КиноПоиск HD] от ExKinoRay pb.wtf

Разлучённые души через торрент pb.wtf

Раздают: 1 [ 0 KB/s ]
Размер: 1.99 GB | Добавлен: 8 д. назад | Торрент скачан:28 раз
Смотреть онлайн Разлучённые души | Скачать    Ребята, помогите собрать деньги на оплату серверов!!!

18-11-2021 16:18 Разлучённые души Скачать торрент  


Разлучённые души / Разлука / Separation
Информация о фильме:
Название: Разлучённые души / Разлука
Оригинальное название: Separation
Год выхода: 2021
Жанр: Ужасы, драма
Режиссер: Уильям Брент Белл

В ролях: Руперт Френд, Виолет Макгроу, Мадлен Брюэр, Мэми Гаммер, Брайан Кокс, Эрик Миллер, Саймон Куотерман, Мэнни Перес, Лорри Одом, Лайла Шрив

Описание: Мама маленькой Дженни требует развод и единоличную опеку над ребёнком — муж Джефф, в прошлом автор популярного комикса, уже давно сидит без идей и работы, а она сама вынуждена до ночи пропадать в офисе. Когда женщина внезапно гибнет под колёсами автомобиля, Дженни начинает странно себя вести, а Джефф подозревает, что в их доме активизировалось нечто потустороннее.



Страна: США
Студия: Post Film, Rainmaker Films, The Machine Room, Yale Productions
Продолжительность: 01:47:34
Перевод: Дублированный - Кинопоиск HD



Информация о файле:
Кодек: AVC
Формат: MKV
Качество: WEB-DLRip-AVC
Видео: MPEG-4 AVC, 1024x426, 23.976 fps, 1750 kb/s
Аудио RU: AC3, 6 ch, 48 kHz, 448 kbps
Аудио EN: AC3, 6 ch, 48 kHz, 448 kbps
Субтитры: Русские (Forced, full), английские

General
Unique ID : 206848877117080722679822872221601532338 (0x9B9DA50724FCC809EE115E11719489B2)
Complete name : D:uTorrentРипы wolf1245Separation.2021.DUB.KHD.WEB-DLRip-AVC.[wolf1245.ExKinoRay].mkv
Format : Matroska
Format version : Version 4
File size : 1.99 GiB
Duration : 1 h 47 min
Overall bit rate : 2 639 kb/s
Movie name : Separation.2021.DUB.KHD.WEB-DLRip-AVC.[wolf1245.ExKinoRay]
Encoded date : UTC 2021-11-18 16:05:58
Writing application : mkvmerge v63.0.0 ('Everything') 64-bit
Writing library : libebml v1.4.2 + libmatroska v1.6.4
Video
ID : 1
Format : AVC
Format/Info : Advanced Video Codec
Format profile : High@L4.1
Format settings : CABAC / 12 Ref Frames
Format settings, CABAC : Yes
Format settings, Reference frames : 12 frames
Codec ID : V_MPEG4/ISO/AVC
Duration : 1 h 47 min
Bit rate : 1 750 kb/s
Width : 1 024 pixels
Height : 426 pixels
Display aspect ratio : 2.40:1
Frame rate mode : Constant
Frame rate : 23.976 (24000/1001) FPS
Color space : YUV
Chroma subsampling : 4:2:0
Bit depth : 8 bits
Scan type : Progressive
Bits/(Pixel*Frame) : 0.167
Stream size : 1.31 GiB (66%)
Title : .[wolf1245.ExKinoRay]
Writing library : x264 core 161 r3020 d198931
Encoding settings : cabac=1 / ref=12 / deblock=1:-3:-3 / analyse=0x3:0x133 / me=umh / subme=11 / psy=1 / psy_rd=1.02:0.07 / mixed_ref=1 / me_range=48 / chroma_me=1 / trellis=2 / 8x8dct=1 / cqm=0 / deadzone=21,11 / fast_pskip=1 / chroma_qp_offset=-3 / threads=10 / lookahead_threads=2 / sliced_threads=0 / nr=0 / decimate=0 / interlaced=0 / bluray_compat=0 / constrained_intra=0 / bframes=10 / b_pyramid=2 / b_adapt=2 / b_bias=0 / direct=3 / weightb=1 / open_gop=0 / weightp=2 / keyint=240 / keyint_min=24 / scenecut=40 / intra_refresh=0 / rc_lookahead=60 / rc=2pass / mbtree=0 / bitrate=1750 / ratetol=1.0 / qcomp=0.60 / qpmin=0 / qpmax=69 / qpstep=4 / cplxblur=20.0 / qblur=0.5 / vbv_maxrate=50000 / vbv_bufsize=62500 / nal_hrd=none / filler=0 / ip_ratio=1.40 / pb_ratio=1.30 / aq=3:0.80
Language : English
Default : Yes
Forced : No
Color range : Limited
Color primaries : BT.709
Transfer characteristics : BT.709
Matrix coefficients : BT.709
Audio #1
ID : 2
Format : AC-3
Format/Info : Audio Coding 3
Commercial name : Dolby Digital
Codec ID : A_AC3
Duration : 1 h 47 min
Bit rate mode : Constant
Bit rate : 448 kb/s
Channel(s) : 6 channels
Channel layout : L R C LFE Ls Rs
Sampling rate : 48.0 kHz
Frame rate : 31.250 FPS (1536 SPF)
Compression mode : Lossy
Stream size : 345 MiB (17%)
Title : Dub [Kinopoisk HD]
Language : Russian
Service kind : Complete Main
Default : No
Forced : No
Audio #2
ID : 3
Format : AC-3
Format/Info : Audio Coding 3
Commercial name : Dolby Digital
Codec ID : A_AC3
Duration : 1 h 47 min
Bit rate mode : Constant
Bit rate : 448 kb/s
Channel(s) : 6 channels
Channel layout : L R C LFE Ls Rs
Sampling rate : 48.0 kHz
Frame rate : 31.250 FPS (1536 SPF)
Compression mode : Lossy
Stream size : 345 MiB (17%)
Title : Original
Language : English
Service kind : Complete Main
Default : Yes
Forced : No
Text #1
ID : 4
Format : UTF-8
Codec ID : S_TEXT/UTF8
Codec ID/Info : UTF-8 Plain Text
Duration : 1 h 30 min
Bit rate : 0 b/s
Count of elements : 16
Stream size : 616 Bytes (0%)
Title : Forced
Language : Russian
Default : Yes
Forced : Yes
Text #2
ID : 5
Format : UTF-8
Codec ID : S_TEXT/UTF8
Codec ID/Info : UTF-8 Plain Text
Duration : 1 h 40 min
Bit rate : 98 b/s
Count of elements : 1260
Stream size : 72.2 KiB (0%)
Title : Full
Language : Russian
Default : No
Forced : No
Text #3
ID : 6
Format : UTF-8
Codec ID : S_TEXT/UTF8
Codec ID/Info : UTF-8 Plain Text
Duration : 1 h 43 min
Bit rate : 66 b/s
Count of elements : 1716
Stream size : 50.7 KiB (0%)
Title : English
Language : English
Default : No
Forced : No
Релиз от:
Автор релиза:
pb.wtf



Скачать Разлучённые души через торрент https://i116.fastpic.org/big/2021/1118/28/58cabdf09c2fc47f6615a93ff0fc0828.jpg Скачать, смотреть онлайн Разлучённые души бесплантно в хорошем качестве Описание: Мама маленькой Дженни требует развод и единоличную опеку над ребёнком — муж Джефф, в прошлом автор популярного комикса, уже ... 10 10 1
Торрент: Зарегистрирован [2021-11-18 16:18] · скачан: 28 раз
Статус: √ проверено
Размер: 1.99 GB
Как cкачать? Как скачать Разлучённые души через торрент | UTorrent

28-11-2019 20:33  

Отключить всю рекламу на сайте

    Дорогой пользователь! Огромная просьба, поблагодарите релизера, оцените раздачу и оставьте свои комментарий, если Вы скачали Разлучённые души через торрент бесплатно!
    Комментировать посты могут только пользователи прошедшие не сложную регистрацию
    Показать сообщения:    

    Разлучённые души через торрент
    Скачать бесплатно Разлучённые души
    Разлучённые души скачать торрент
    Разлучённые души смотреть онлайн
    Cкачать фильм Разлучённые души бесплатно
    Разлучённые души скачать торрент в хорошем качестве
    Разлучённые души смотреть онлайн бесплатно в хорошем качестве


    Вы не можете начинать темы
    Вы не можете отвечать на сообщения
    Вы не можете редактировать свои сообщения
    Вы не можете удалять свои сообщения
    Вы не можете голосовать в опросах
    Вы не можете прикреплять файлы к сообщениям
    Вы можете скачивать файлы